[bittorrent] Big Sam's Funky Nation Smith's Olde Bar Atlanta, Georgia 1/16/2011 (Schoeps CCM4V'S FOB)

Automated Mailer noreply-bt.e at etree.org
Mon Jan 17 10:47:43 MST 2011


Band:           Other
Torrent Name:   Big Sam's Funky Nation Smith's Olde Bar Atlanta, Georgia 1/16/2011 (Schoeps CCM4V'S FOB)
Uploaded by:    zmanatl
DB Link:        
Details:        http://bt.etree.org/details.php?id=541796

Contact the seeder at http://db.etree.org/zmanatl

If the link to this show does not work, it was probably removed for
being non-trade-friendly.

Description / text file:
-------------------------
Big Sam's Funky Nation
Smith's Olde Bar
Atlanta, Georgia
1/16/2011

Source: Schoeps CCM4V'S(din)>Lunatec V2>Benchmark AD2K>
Sound Devices 722 (24/48)
FOB/DFC/KFC/ZFC/AARP 15' From Stage, 7' High
DSP: Sound Devices 722>Sound Forge 9.0>CD Wave>flac(16)
Recorded By: Z-Man
Seeded By: Z-Man

Disc I 

01 ?
02 ?
03 Dance Floor
04 I Came To Party >
05 Big Sam Funky Nation >
06 Thank You For Let Me Be Myself >
07 Ain't No Party Like A Funky Nation Party > 
08 Drum Solo >
09 Hard To Handle 

Disc II  

01 You Sexy Mother F >
02 Fuck You
03 ? >
04 Do What you Want To >
05 I Need You >
06 Everybody Needs Somebody >
07 I Need You >
08 You Are My Sunshine >
09 Turn On Your Lovelight > 
10 You Are My Sunshine >
11 ? > 
12 Band Introductions 
Encore:
13 Who Dat Banter
14 When The Saints Go Marching In
15 Who Dat >
16 *Mama Don't Want No Trombone Playin' Around Here >
17 *You Rascal You >
18 *Mama Don't Want No Trombone Playin' Around Here

* With Rich Sharington On Trombone

Big Sam - Trombone And Vocals
Andrew Baham - Trumpet And Vocals
Takeshi Shimmura - Guitar
Eric Vogel - Bass
MILK - Drums

Flac Fingerprint 

bigsam2011-01-16d01t01.flac:f9177b8e464afffd2629a305b4103c14
bigsam2011-01-16d01t02.flac:187b9cc52b079138b7907db5fd71f8de
bigsam2011-01-16d01t03.flac:426e68ad05905005e01f0092260c4df5
bigsam2011-01-16d01t04.flac:dad70cb4427c2f8fed8be258c182fdf3
bigsam2011-01-16d01t05.flac:1a7fd916873d5c16ec3f5e62d1feeb6e
bigsam2011-01-16d01t06.flac:0572a3fcef5562d028a222d1d588e576
bigsam2011-01-16d01t07.flac:576fd0571f429b1eef99ff522ac1c352
bigsam2011-01-16d01t08.flac:43df2269e828af98d01b873ad7abf4af
bigsam2011-01-16d01t09.flac:51c68d770d6faaea126ad88a1e1ad731
bigsam2011-01-16d02t01.flac:c3e63e865ba7cfdadcc5c045c080c047
bigsam2011-01-16d02t02.flac:e2533d5ba4b7d680af4904de0144cfe5
bigsam2011-01-16d02t03.flac:d1a35089b9dbbc1e586155dfaa12ab26
bigsam2011-01-16d02t04.flac:66c274f1124bbc198be31ef50a3f525f
bigsam2011-01-16d02t05.flac:9c69b257834eca97d0e5acec09f8676d
bigsam2011-01-16d02t06.flac:4a7f1549f3c0bdb0e71b55c0bd618a60
bigsam2011-01-16d02t07.flac:7ddf801c8002cb2c300afd4868b54fde
bigsam2011-01-16d02t08.flac:80ac16054ecd79e888f4164d153dbc93
bigsam2011-01-16d02t09.flac:4df89ac92f56889765a42dbc3d3d2580
bigsam2011-01-16d02t10.flac:b2ec56c66982ff4330237830f52271f3
bigsam2011-01-16d02t11.flac:40ed936fe67c7240dbc2648c525a0f95
bigsam2011-01-16d02t12.flac:f8fafaedbc5d4cc512feb9e58b80755c
bigsam2011-01-16d02t13.flac:18fe5abde0aeb8bcc2698039771e98fd
bigsam2011-01-16d02t14.flac:cd338d331adf03587d024ab5f598b072
bigsam2011-01-16d02t15.flac:ae28b92d94f39faf28c3396804ee8844
bigsam2011-01-16d02t16.flac:76cdc5428f575e892f63a60926fd4c0f
bigsam2011-01-16d02t17.flac:61daa9dd85427565e0eb7bef95428bf3
bigsam2011-01-16d02t18.flac:2cc186a9e7cdf9a8bdf0c6eb3c4c11cc

Shntool 

    length     expanded size    cdr  WAVE problems  fmt   ratio  filename
     8:54.45       94303484 B   ---   --   ---xx   flac  0.5881  bigsam2011-01-16d01t01.flac
    13:26.51      142298396 B   ---   --   ---xx   flac  0.5941  bigsam2011-01-16d01t02.flac
     3:00.56       31883756 B   ---   --   ---xx   flac  0.6036  bigsam2011-01-16d01t03.flac
     5:58.60       63292364 B   ---   --   ---xx   flac  0.5530  bigsam2011-01-16d01t04.flac
    10:59.12      116275868 B   ---   --   ---xx   flac  0.5953  bigsam2011-01-16d01t05.flac
     1:11.15       12559724 B   ---   --   ---xx   flac  0.5889  bigsam2011-01-16d01t06.flac
     5:28.57       57993308 B   ---   --   ---xx   flac  0.5404  bigsam2011-01-16d01t07.flac
     2:18.01       24345596 B   ---   --   ---xx   flac  0.5423  bigsam2011-01-16d01t08.flac
     5:09.47       54618188 B   ---   --   ---xx   flac  0.6161  bigsam2011-01-16d01t09.flac
     5:43.10       60528764 B   ---   --   ---xx   flac  0.5659  bigsam2011-01-16d02t01.flac
     6:38.22       70258988 B   ---   --   ---xx   flac  0.5511  bigsam2011-01-16d02t02.flac
     6:45.58       71578460 B   ---   --   ---xx   flac  0.6220  bigsam2011-01-16d02t03.flac
     2:12.07       23301308 B   ---   --   ---xx   flac  0.6172  bigsam2011-01-16d02t04.flac
     0:35.59        6312812 B   ---   --   ---xx   flac  0.6172  bigsam2011-01-16d02t05.flac
     0:15.47        2756588 B   ---   --   ---xx   flac  0.6530  bigsam2011-01-16d02t06.flac
     0:15.73        2817740 B   ---   --   ---xx   flac  0.6459  bigsam2011-01-16d02t07.flac
     0:47.59        8429612 B   ---   --   ---xx   flac  0.6481  bigsam2011-01-16d02t08.flac
     1:30.46       15984236 B   ---   --   ---xx   flac  0.6229  bigsam2011-01-16d02t09.flac
     0:31.57        5602508 B   ---   --   ---xx   flac  0.6456  bigsam2011-01-16d02t10.flac
     1:54.30       20180204 B   ---   --   ---xx   flac  0.5397  bigsam2011-01-16d02t11.flac
     4:22.15       46252124 B   ---   --   ---xx   flac  0.5391  bigsam2011-01-16d02t12.flac
     0:45.03        7945100 B   ---   --   ---xx   flac  0.3180  bigsam2011-01-16d02t13.flac
     1:21.28       14354300 B   ---   --   ---xx   flac  0.5776  bigsam2011-01-16d02t14.flac
     0:17.14        3031772 B   ---   --   ---xx   flac  0.5533  bigsam2011-01-16d02t15.flac
     4:28.32       47350508 B   ---   --   ---xx   flac  0.5109  bigsam2011-01-16d02t16.flac
     0:39.47        6990188 B   ---   --   ---xx   flac  0.5656  bigsam2011-01-16d02t17.flac
     2:26.46       25862636 B   ---   --   ---xx   flac  0.5242  bigsam2011-01-16d02t18.flac
    97:59.22     1037108532 B                            0.5761  (27 files)







More information about the bittorrent mailing list