[bittorrent] Secret Sisters Somerville Theatre Somerville, Massachusetts 1/13/2011 (Schoeps CCM4V'S FOB)

Automated Mailer noreply-bt.e at etree.org
Fri Jan 14 19:25:29 MST 2011


Band:           Other
Torrent Name:   Secret Sisters Somerville Theatre Somerville, Massachusetts 1/13/2011 (Schoeps CCM4V'S FOB)
Uploaded by:    zmanatl
DB Link:        
Details:        http://bt.etree.org/details.php?id=541724

Contact the seeder at http://db.etree.org/zmanatl

If the link to this show does not work, it was probably removed for
being non-trade-friendly.

Description / text file:
-------------------------
Secret Sisters
Somerville Theatre
Somerville, Massachusetts
1/13/2011

Source: Schoeps CCM4V'S(din)>Lunatec V2>Benchmark AD2K>
Sound Devices 722 (24/48)
FOB/DFC/KFC/ZFC/AARP Center Section, Row M, Seat 4, 6' High
DSP: Sound Devices 722>Sound Forge 9.0>CD Wave>flac(16)
Recorded By: Z-Man
Seeded By: Z-Man

Disc I 

01 I Don't Know
02 Banter
03 Why Baby Why
04 Devoted To You
05 Leavin' On Your Mind
06 Your Cheatin' Heart
07 Blue Eyes Cryin' In The Rain
08 River Jordan
09 House Of Gold

Flac Fingerprint 

secret2011-01-13d01t01.flac:89de4891bed03f82ea9f51845b8fa780
secret2011-01-13d01t02.flac:d4d4c5004cbd47a6ca7d478fe1f75b56
secret2011-01-13d01t03.flac:2ac82ad08934fcfd6a1067f176c3e711
secret2011-01-13d01t04.flac:dfb445fdf5c8aa2ef0143c0f1cd822bc
secret2011-01-13d01t05.flac:e38f450519d35ebf8c3ca6448c4336ab
secret2011-01-13d01t06.flac:97f04c64e5d8512e759bae5ddfadcc2a
secret2011-01-13d01t07.flac:3ca6ea7b8320a4abecd6e1e2438ae082
secret2011-01-13d01t08.flac:87078d6a1232179bd4b924bfd1ce50e4
secret2011-01-13d01t09.flac:9687f4b622b920cd65d520f28a1cc09f

Shntool 

    length     expanded size    cdr  WAVE problems  fmt   ratio  filename
     3:25.51       36281996 B   ---   --   ---xx   flac  0.4112  secret2011-01-13d01t01.flac
     1:00.13       10614620 B   ---   --   ---xx   flac  0.4123  secret2011-01-13d01t02.flac
     3:17.50       34868444 B   ---   --   ---xx   flac  0.4245  secret2011-01-13d01t03.flac
     2:47.11       29484716 B   ---   --   ---xx   flac  0.4115  secret2011-01-13d01t04.flac
     2:37.22       27746588 B   ---   --   ---xx   flac  0.3990  secret2011-01-13d01t05.flac
     3:09.65       33492524 B   ---   --   ---xx   flac  0.4147  secret2011-01-13d01t06.flac
     3:11.66       33847676 B   ---   --   ---xx   flac  0.3924  secret2011-01-13d01t07.flac
     4:22.39       46308572 B   ---   --   ---xx   flac  0.4213  secret2011-01-13d01t08.flac
     3:54.29       41345852 B   ---   --   ---xx   flac  0.4093  secret2011-01-13d01t09.flac
    27:46.46      293990988 B                            0.4113  (9 files)







More information about the bittorrent mailing list