[bittorrent] Greensky Bluegrass Green Parrot Key West, Florida 1/11/2011 (Webcast Recording)

Automated Mailer noreply-bt.e at etree.org
Tue Jan 11 18:38:52 MST 2011


Band:           Other
Torrent Name:   Greensky Bluegrass Green Parrot Key West, Florida 1/11/2011 (Webcast Recording)
Uploaded by:    zmanatl
DB Link:        
Details:        http://bt.etree.org/details.php?id=541658

Contact the seeder at http://db.etree.org/zmanatl

If the link to this show does not work, it was probably removed for
being non-trade-friendly.

Description / text file:
-------------------------
Greensky Bluegrass - Early Show
The Green Parrot
Key West, Florida 
1/11/2011

Source: Webcast Feed>Sound Devices 722 (24/48)
FOC(Front Of Computer)/ZFC/AARP
DSP: Sound Devices 722>Sound Forge 9.0>CD Wave>flac(16)
Recorded By: Z-Man
Seeded By: Z-Man

Disc I 1st Set

01 *Tuesday Letter >
02 Green 
03 ? 
04 ? 
05 Fish And Whistle
06 Cry Holy Unto The Lord >
07 I'm Still Here
08 Get Back
09 ?
10 ?
11 Sweetwater Sea
12 Stop That Train I'm Leavin' >
13 Wind Cries Mary >
14 Stop That Train I'm Leavin'
15 Love Come Home

* I was at work and missed the begining which I believe was Groundhog. Recording starts about halfway through Tuesday Letter. The mics that they use are above the crowd and they pick up lots of chatter, so quality is fair, but I guess better than nothing!

Flac Fingerprint 

gsbg2011-01-11early01.flac:94fc56b10a195d45c1c8bec360c28842
gsbg2011-01-11early02.flac:63d296ee57e2405beef7699b611d796a
gsbg2011-01-11early03.flac:d8bd8ec753773f2883ee11f91fac9724
gsbg2011-01-11early04.flac:e7ad5c7af76267a795746eb2efdf04ea
gsbg2011-01-11early05.flac:f49535b2bca435a4d893c93bfce098a4
gsbg2011-01-11early06.flac:4f8e0ac6bea6fa7e3197efe1b6953099
gsbg2011-01-11early07.flac:dc8ff4af8de054022a8a2d8dc41ab575
gsbg2011-01-11early08.flac:fe16ac4b55e43e1f6b212d4a97a0e918
gsbg2011-01-11early09.flac:c55f1327ae9bf8acaa839b7b2321afcb
gsbg2011-01-11early10.flac:093ba3350f4f73750ebc1e8b016bbc6d
gsbg2011-01-11early11.flac:782af96371701932578fba59a765301a
gsbg2011-01-11early12.flac:8dde911086f436e0e0de0f3a6eff1538
gsbg2011-01-11early13.flac:b066a97475c0c1f393031d0b43aa90ea
gsbg2011-01-11early14.flac:4705cfbd4b23dfdb31cc83dd62200e47
gsbg2011-01-11early15.flac:53166c28e4b8726008bf721245c69204

Shntool 

    length     expanded size    cdr  WAVE problems  fmt   ratio  filename
     2:18.03       24350300 B   ---   --   ---xx   flac  0.4366  gsbg2011-01-11early01.flac
     3:37.45       38384684 B   ---   --   ---xx   flac  0.4476  gsbg2011-01-11early02.flac
     4:05.73       43389740 B   ---   --   ---xx   flac  0.4190  gsbg2011-01-11early03.flac
     5:28.47       57969788 B   ---   --   ---xx   flac  0.4202  gsbg2011-01-11early04.flac
     6:55.40       73300124 B   ---   --   ---xx   flac  0.4295  gsbg2011-01-11early05.flac
     3:13.73       34216940 B   ---   --   ---xx   flac  0.4515  gsbg2011-01-11early06.flac
     4:49.04       50989052 B   ---   --   ---xx   flac  0.4466  gsbg2011-01-11early07.flac
     3:45.34       39770012 B   ---   --   ---xx   flac  0.4458  gsbg2011-01-11early08.flac
     3:02.03       32111900 B   ---   --   ---xx   flac  0.4593  gsbg2011-01-11early09.flac
     3:18.48       35040140 B   ---   --   ---xx   flac  0.4338  gsbg2011-01-11early10.flac
     5:16.63       55890620 B   ---   --   ---xx   flac  0.4319  gsbg2011-01-11early11.flac
    13:37.14      144151772 B   ---   --   ---xx   flac  0.4464  gsbg2011-01-11early12.flac
     2:50.15       30023324 B   ---   --   ---xx   flac  0.4478  gsbg2011-01-11early13.flac
     1:26.29       15238652 B   ---   --   ---xx   flac  0.4491  gsbg2011-01-11early14.flac
     4:44.41       50194076 B   ---   --   ---xx   flac  0.4544  gsbg2011-01-11early15.flac
    68:30.07      725021124 B                            0.4404  (15 files)









More information about the bittorrent mailing list