[bittorrent] Club d'Elf Lizard Lounge Cambridge, Massachusetts 1/7/2011 (Schoeps CCM4V'S Stage Lip)

Automated Mailer noreply-bt.e at etree.org
Sat Jan 8 12:53:32 MST 2011


Band:           Club d'Elf
Torrent Name:   Club d'Elf Lizard Lounge Cambridge, Massachusetts 1/7/2011 (Schoeps CCM4V'S Stage Lip)
Uploaded by:    zmanatl
DB Link:        
Details:        http://bt.etree.org/details.php?id=541591

Contact the seeder at http://db.etree.org/zmanatl

If the link to this show does not work, it was probably removed for
being non-trade-friendly.

Description / text file:
-------------------------
Club d'Elf
Lizard Lounge
Cambridge, Massachusetts
1/7/2011

Source: Schoeps CCM4V'S(din)>Lunatec V2>Benchmark AD2K>
Sound Devices 722 (24/48)
FOB/DFC/KFC/ZFC/AARP Stage Lip, 3' High
DSP: Sound Devices 722>Sound Forge 9.0>CD Wave>flac(16)
Recorded By: Z-Man
Seeded By: Z-Man

Disc I 1st Set

01 Soundcheck
02 Greeting
03 ? >
04 ? >
05 Drum Solo >
06 ? >

Disc II 1st Set Con't

01 ? >
02 ? >
03 ? >
04 ? >
05 Band Introductions

Disc III 2nd Set

01 ? >
02 ? >
03 ? >
04 

Mike Rivard - Bass, Electric Bass, Sintir
Randy Roos - Guitar
Paul Schultheis - Rhodes And Moog
Tom Hall - Tenor And Baritone Saxophones  
Jerry Leake - Percussion
Dean Johnston - Drums
Mister Rourke - Turntables

Flac Fingerprint 

clubdelf2011-01-07d01t01.flac:6167ff0947a3c7de3112b1f10fa33bf0
clubdelf2011-01-07d01t02.flac:ccb7e7982a223593462b7a188786dd3f
clubdelf2011-01-07d01t03.flac:2e91551bda257b5b80d488ca9b94d60b
clubdelf2011-01-07d01t04.flac:e3ff4fa3e14a1e96a19bd9c288134cdf
clubdelf2011-01-07d01t05.flac:306578a56ec0be79ec3afd9da73a8d31
clubdelf2011-01-07d01t06.flac:2e9c5ee4be9199ad65425c864fe31d24
clubdelf2011-01-07d02t01.flac:d1153e3bc81565d719786cb1607b9894
clubdelf2011-01-07d02t02.flac:d4db440f5f2b5aac700c71697b1b3d1d
clubdelf2011-01-07d02t03.flac:414a06e0c8366e70566e0c0299ca4309
clubdelf2011-01-07d02t04.flac:f12f2d082bbbe937734852452042bf66
clubdelf2011-01-07d02t05.flac:81af14c93766ab79bb6325024cd16b5b
clubdelf2011-01-07d03t01.flac:b3aa71294a53981e2ad10642af443c6b
clubdelf2011-01-07d03t02.flac:9f244bb6c9fb652cb037aaa5227542c3
clubdelf2011-01-07d03t03.flac:c642562290eac80d168851b07eb98774
clubdelf2011-01-07d03t04.flac:778c4fea1a0d4798b9dc54e498d4584a

Shntool 

    length     expanded size    cdr  WAVE problems  fmt   ratio  filename
    13:05.46      138582236 B   ---   --   ---xx   flac  0.3593  clubdelf2011-01-07d01t01.flac
     0:29.39        5207372 B   ---   --   ---xx   flac  0.2507  clubdelf2011-01-07d01t02.flac
    26:39.37      282150668 B   ---   --   ---xx   flac  0.5132  clubdelf2011-01-07d01t03.flac
    23:16.15      246289724 B   ---   --   ---xx   flac  0.4748  clubdelf2011-01-07d01t04.flac
     1:52.14       19789772 B   ---   --   ---xx   flac  0.5254  clubdelf2011-01-07d01t05.flac
     3:01.19       31973132 B   ---   --   ---xx   flac  0.4287  clubdelf2011-01-07d01t06.flac
    10:42.39      113340572 B   ---   --   ---xx   flac  0.5004  clubdelf2011-01-07d02t01.flac
    14:31.03      153651500 B   ---   --   ---xx   flac  0.5322  clubdelf2011-01-07d02t02.flac
     9:57.00      105310844 B   ---   --   ---xx   flac  0.5113  clubdelf2011-01-07d02t03.flac
    15:16.01      161584796 B   ---   --   ---xx   flac  0.5199  clubdelf2011-01-07d02t04.flac
     2:27.70       26095484 B   ---   --   ---xx   flac  0.3899  clubdelf2011-01-07d02t05.flac
    15:03.00      159289244 B   ---   --   ---xx   flac  0.4987  clubdelf2011-01-07d03t01.flac
     9:08.01       96669596 B   ---   --   ---xx   flac  0.3913  clubdelf2011-01-07d03t02.flac
    13:25.52      142124348 B   ---   --   ---xx   flac  0.5408  clubdelf2011-01-07d03t03.flac
     7:28.61       79170716 B   ---   --   ---xx   flac  0.5237  clubdelf2011-01-07d03t04.flac
   166:24.22     1761230004 B                            0.4877  (15 files)









More information about the bittorrent mailing list