[bittorrent] Jon Short Lizard Lounge Cambridge, Massachusetts 1/6/2011 (Schoeps CCM4V'S FOB)

Automated Mailer noreply-bt.e at etree.org
Fri Jan 7 14:54:56 MST 2011


Band:           Other
Torrent Name:   Jon Short Lizard Lounge Cambridge, Massachusetts 1/6/2011 (Schoeps CCM4V'S FOB)
Uploaded by:    zmanatl
DB Link:        
Details:        http://bt.etree.org/details.php?id=541576

Contact the seeder at http://db.etree.org/zmanatl

If the link to this show does not work, it was probably removed for
being non-trade-friendly.

Description / text file:
-------------------------
Jon Short
Lizard Lounge
Cambridge, Massachusetts
1/6/2011

Source: Schoeps CCM4V'S(din)>Lunatec V2>Benchmark AD2K>
Sound Devices 722 (24/48)
FOB/DFC/KFC/ZFC/AARP Stage Lip, 3' High
DSP: Sound Devices 722>Sound Forge 9.0>CD Wave>flac(16)
Recorded By: Z-Man
Seeded By: Z-Man

Disc I 

01 ?
02 Good Morning Judge
03 Payday
04 What Makes Grandpa Love Grandma So >
05 You Are My Sushine >
06 What Makes Grandpa Love Grandma So
07 Pushin' My Luck
08 Tuning/Banter
09 Teeter's Left-Hand Blues
10 Skinny G Woman
11 Skin And Bones
12 Tuning
13 *Asian Long-Horned Beetle >
14 You Are My Sunshine

* With Norwegian Wood Riffs

Flac Fingerprint 

jonshort2011-01-06d01t01.flac:c5bdb904fa1178c8776f91191a792dc5
jonshort2011-01-06d01t02.flac:c10f6a58e12e3de025831d47fc09e26e
jonshort2011-01-06d01t03.flac:de2a238a6b6dafc99bcdb4ccc7e826df
jonshort2011-01-06d01t04.flac:7d05d4067fc316960b8587e62abacf98
jonshort2011-01-06d01t05.flac:b6c151375e08d7369f7f96a994d7d452
jonshort2011-01-06d01t06.flac:bd1a36a98056e84e406d3edb04b75876
jonshort2011-01-06d01t07.flac:eae428602aca0707b95eb54e3fd63fa9
jonshort2011-01-06d01t08.flac:6ba643c2983eaef7b1c61bf46a35ef3f
jonshort2011-01-06d01t09.flac:e13ec4942a60c8c52bf6bc906f805dfb
jonshort2011-01-06d01t10.flac:77c4e306afe758860629119b5e2a080e
jonshort2011-01-06d01t11.flac:8a07c3991e1af67401c0a81c4a9506bf
jonshort2011-01-06d01t12.flac:8d99e4e048331eb89922075a6e489fca
jonshort2011-01-06d01t13.flac:487a36893be05b88f7357c5d46fb62ee
jonshort2011-01-06d01t14.flac:b68fc4aba0e7c096b356fbb3cb995463

Shntool 

    length     expanded size    cdr  WAVE problems  fmt   ratio  filename
     6:06.46       64670636 B   ---   --   ---xx   flac  0.4721  jonshort2011-01-06d01t01.flac
     6:30.31       68868956 B   ---   --   ---xx   flac  0.4758  jonshort2011-01-06d01t02.flac
     6:44.17       71305628 B   ---   --   ---xx   flac  0.4406  jonshort2011-01-06d01t03.flac
     6:13.05       65809004 B   ---   --   ---xx   flac  0.5155  jonshort2011-01-06d01t04.flac
     0:32.35        5727164 B   ---   --   ---xx   flac  0.4984  jonshort2011-01-06d01t05.flac
     2:51.58       30300860 B   ---   --   ---xx   flac  0.4332  jonshort2011-01-06d01t06.flac
     6:06.01       64564796 B   ---   --   ---xx   flac  0.5244  jonshort2011-01-06d01t07.flac
     1:54.68       20269580 B   ---   --   ---xx   flac  0.4165  jonshort2011-01-06d01t08.flac
     5:32.34       58644812 B   ---   --   ---xx   flac  0.4997  jonshort2011-01-06d01t09.flac
     6:50.16       72361676 B   ---   --   ---xx   flac  0.5244  jonshort2011-01-06d01t10.flac
     3:53.36       41185916 B   ---   --   ---xx   flac  0.5301  jonshort2011-01-06d01t11.flac
     2:20.69       24858332 B   ---   --   ---xx   flac  0.4374  jonshort2011-01-06d01t12.flac
     4:33.28       48223100 B   ---   --   ---xx   flac  0.5460  jonshort2011-01-06d01t13.flac
     2:44.56       29061356 B   ---   --   ---xx   flac  0.5065  jonshort2011-01-06d01t14.flac
    62:54.50      665851816 B                            0.4925  (14 files)







More information about the bittorrent mailing list