[bittorrent] gd78-01-11.110959.mtx.motb.0152.flac16

Automated Mailer noreply-bt.e at etree.org
Thu Jan 6 06:19:26 MST 2011


Band:           Grateful Dead
Torrent Name:   gd78-01-11.110959.mtx.motb.0152.flac16
Uploaded by:    germain
DB Link:        http://db.etree.org/shn/110959
Details:        http://bt.etree.org/details.php?id=541547

Contact the seeder at http://db.etree.org/germain

If the link to this show does not work, it was probably removed for
being non-trade-friendly.

Description / text file:
-------------------------
MOTB Release: 0152 16/44.1
Release Date: 2010-08-05
Band: Grateful Dead
Date: 1978-01-11 (Wednesday)
Venue: Shrine Auditorium
Location: Los Angeles, CA
Analog Audience Source: FOB Master Cassettes (MAC)
Analog Soundboard Source: Master Soundboard Cassette (MSC)
Medium Stock Brands: MAC = 2 x Maxell UDXL-II
Analog Lineage: 2 x AKG D224E >> Sony TC-158SD  >> MAC
Analog Sound Preservation: MAC >> Nakamichi CR7a => Korg MR-1000 >> DSF [1-bit 5.6448 MHz Stereo] >> Korg MR-1000 => Korg AudioGate >> WAV [24/96]
Soundboard Lineage: SBD >> MSC (dolby C)
Soundboard Sound Preservation: MSC >> Nakamichi CR7a => Korg MR-1000 >> DSF [1-bit 5.6448 MHz Stereo] >> Korg MR-1000 => Korg AudioGate >> WAV [24/96]
Taped By: Rheinhart Holwein
Transfer By: Bob Menke
Mastering By: Derek McCabe
Matrix By: Derek McCabe


Disc One
Set 1:
d1t01: Tuning
d1t02: New Minglewood Blues
d1t03: Dire Wolf
d1t04: Looks Like Rain
d1t05: They Love Each Other
d1t06: Big River ->
d1t07: El Paso
d1t08: Brown Eyed Women
d1t09: Let It Grow

Disc Two
Set 2:
d2t01: Tuning
d2t02: Samson And Delilah
d2t03: Sunrise
d2t04: Tuning
d2t05: Terrapin Station ->
d2t06: Playing In The Band ->
d2t07: Jam ->
d2t08: Drums -> Space ->

Disc Three (Set 2 cont)
d3t01: Saint Stephen ->
d3t02: Not Fade Away->
d3t03: Jam ->
d3t04: Playing Reprise
~encore~
d3t05: Passenger


Notes: The sbd source is new to circulation and is a master.

SHN TOOL:

length     expanded size    cdr  WAVE problems  fmt   ratio  filename
     1:52.16       19794476 B   ---   --   -----    wav  1.0000  gd1978-01-11.mtx.motb.d1t01.wav
     7:25.70       78662684 B   ---   --   -----    wav  1.0000  gd1978-01-11.mtx.motb.d1t02.wav
     4:57.00       52390844 B   ---   --   -----    wav  1.0000  gd1978-01-11.mtx.motb.d1t03.wav
    10:03.16      106406876 B   ---   --   -----    wav  1.0000  gd1978-01-11.mtx.motb.d1t04.wav
     9:19.30       98678204 B   ---   --   -----    wav  1.0000  gd1978-01-11.mtx.motb.d1t05.wav
     5:59.49       63442892 B   ---   --   -----    wav  1.0000  gd1978-01-11.mtx.motb.d1t06.wav
     4:19.41       45784076 B   ---   --   -----    wav  1.0000  gd1978-01-11.mtx.motb.d1t07.wav
     9:22.13       99167420 B   ---   --   -----    wav  1.0000  gd1978-01-11.mtx.motb.d1t08.wav
    12:15.18      129696380 B   ---   --   -----    wav  1.0000  gd1978-01-11.mtx.motb.d1t09.wav
     1:43.35       18251564 B   ---   --   -----    wav  1.0000  gd1978-01-11.mtx.motb.d2t01.wav
     9:43.28      102907100 B   ---   --   -----    wav  1.0000  gd1978-01-11.mtx.motb.d2t02.wav
     4:35.20       48557084 B   ---   --   -----    wav  1.0000  gd1978-01-11.mtx.motb.d2t03.wav
     2:42.49       28692092 B   ---   --   -----    wav  1.0000  gd1978-01-11.mtx.motb.d2t04.wav
    11:31.55      122021804 B   ---   --   -----    wav  1.0000  gd1978-01-11.mtx.motb.d2t05.wav
     3:00.04       31761452 B   ---   --   -----    wav  1.0000  gd1978-01-11.mtx.motb.d2t06.wav
    12:05.48      128002940 B   ---   --   -----    wav  1.0000  gd1978-01-11.mtx.motb.d2t07.wav
     7:16.19       76955132 B   ---   --   -----    wav  1.0000  gd1978-01-11.mtx.motb.d2t08.wav
     9:43.68      103001180 B   ---   --   -----    wav  1.0000  gd1978-01-11.mtx.motb.d3t01.wav
     8:48.41       93235676 B   ---   --   -----    wav  1.0000  gd1978-01-11.mtx.motb.d3t02.wav
     4:43.46       50029436 B   ---   --   -----    wav  1.0000  gd1978-01-11.mtx.motb.d3t03.wav
     4:37.19       48907532 B   ---   --   -----    wav  1.0000  gd1978-01-11.mtx.motb.d3t04.wav
     6:36.36       69939116 B   ---   --   -----    wav  1.0000  gd1978-01-11.mtx.motb.d3t05.wav
   152:42.46     1616285960 B                            1.0000  (22 files)





More information about the bittorrent mailing list