[bittorrent] gd78-01-11.92086.mtx.sirmick.sbeok.t-flac16

Automated Mailer noreply-bt.e at etree.org
Thu Jan 6 06:16:48 MST 2011


Band:           Grateful Dead
Torrent Name:   gd78-01-11.92086.mtx.sirmick.sbeok.t-flac16
Uploaded by:    germain
DB Link:        http://db.etree.org/shn/92086
Details:        http://bt.etree.org/details.php?id=541546

Contact the seeder at http://db.etree.org/germain

If the link to this show does not work, it was probably removed for
being non-trade-friendly.

Description / text file:
-------------------------
This is a tagged version of shnid: 92086

Grateful Dead
01/11/1978
Shrine Auditorium
Los Angeles, CA
gd78-01-11.mtx.sirmick.92086.sbeok.flac16

Sources used:

1) SBD > MC > R > PCM > D > CD > EAC > SHN
     part of The Music Never Stopped Project 2002
     Thanks to Raoul Duke & Matt Vernon
     edits/encoding by JCotsman
     
2) audience recording on a Marantz pro cassette deck, don't recall the model 
   & Sennheiser MKH404 mics
     Lineage: 
     master cassette > reel @ 3.75 ips > reel @ 3.75 ips > HD > wav
     Encoding: 
     CDWave > flac frontend > flac
     Recorded by: a friend of a friend
     Transfer by: Pantagruel
_______________________________________________________________________________

--set 1--
101-d1t01 - New Minglewood Blues
102-d1t02 - crowd/tuning
103-d1t03 - Dire Wolf
104-d1t04 - crowd/tuning
105-d1t05 - Looks Like Rain
106-d1t06 - crowd/tuning
107-d1t07 - They Love Each Other
108-d1t08 - crowd/tuning
109-d1t09 - Big River ->
110-d1t10 - El Paso
111-d1t11 - crowd/tuning
112-d1t12 - Brown Eyed Women
113-d1t13 - crowd/tuning
114-d1t14 - Let It Grow

--Set 2--
201-d1t15 - tuning
202-d1t02 - Samson & Delilah
203-d2t01 - Sunrise
204-d2t02 - Terrapin Station ->
205-d2t03 - Playing in the Band ->
206-d2t04 - Jam ->
207-d2t05 - Drums -> 
208-d2t06 - Space ->
209-d2t07 - Saint Stephen ->
210-d2t08 - Not Fade Away ->
211-d2t09 - Playing in the Band (reprise)
212-d2t20 - crowd/tuning

--Encore--
213-d2t11 - Passenger
_______________________________________________________________________________


notes:
- the dc offset has been removed from both sources
- a number of very small dropouts have been repaired in the aud source, and a 
  small patch of static removed from the sbd
- much of the tuning is missing from the aud and has been patched in from the 
  sbd
- several sections of music are missing from both sources.  The relevant 
  sections have been patched in from the opposite source


comments:
- my track splits for most of d2 are somewhat speculative, since it doesn't 
  seem to have been pinned down.
-The timings at Deadlists, even allowing for the fact that the pitch may not 
 be correct, are quite different from these and there, d2t05 has been included 
 a part of the previous track.

Matrixed by
SIRMick
June 2008
_______________________________________________________________________________

Tagging notes:
Show information is embedded within the header of each flac file. 
It will display on any player capable of directly playing flac 
files. If converted to wav during processing, all tags will be 
stripped, however audio data will remain unaffected. If you must 
transcode to a lossy format, do so directly Flac > Lossy.
Use ffp to validate audio integrity.
Md5 values will change if tagging is altered.
B. Proctor 6-26-08
_______________________________________________________________________________


shntool output:

    length     expanded size   cdr  WAVE problems filename
     5:38.07       59639708    ---   --   ---xx   gd1978-01-11d1t01.flac
     1:21.35       14370764    ---   --   ---xx   gd1978-01-11d1t02.flac
     3:46.29       39934652    ---   --   ---xx   gd1978-01-11d1t03.flac
     1:33.28       16471100    ---   --   ---xx   gd1978-01-11d1t04.flac
     8:05.59       85692812    ---   --   ---xx   gd1978-01-11d1t05.flac
     1:50.46       19512236    ---   --   ---xx   gd1978-01-11d1t06.flac
     7:04.46       74901836    ---   --   ---xx   gd1978-01-11d1t07.flac
     2:19.58       24656060    ---   --   ---xx   gd1978-01-11d1t08.flac
     6:06.66       64717676    ---   --   ---xx   gd1978-01-11d1t09.flac
     4:10.72       44269388    ---   --   ---xx   gd1978-01-11d1t10.flac
     1:37.35       17193164    ---   --   ---xx   gd1978-01-11d1t11.flac
     4:59.14       52776572    ---   --   ---xx   gd1978-01-11d1t12.flac
     3:14.61       34365116    ---   --   ---xx   gd1978-01-11d1t13.flac
    12:19.03      130366700    ---   --   ---xx   gd1978-01-11d1t14.flac
     1:37.24       17167292    ---   --   ---xx   gd1978-01-11d1t15.flac
     8:07.28       85972700    ---   --   ---xx   gd1978-01-11d1t16.flac
     4:13.14       44662172    ---   --   ---xx   gd1978-01-11d2t01.flac
    11:24.69      120819932    ---   --   ---xx   gd1978-01-11d2t02.flac
    10:02.25      106251644    ---   --   ---xx   gd1978-01-11d2t03.flac
     5:16.12       55770668    ---   --   ---xx   gd1978-01-11d2t04.flac
     2:33.00       26989244    ---   --   ---xx   gd1978-01-11d2t05.flac
     4:08.38       43836620    ---   --   ---xx   gd1978-01-11d2t06.flac
     9:42.17      102704828    ---   --   ---xx   gd1978-01-11d2t07.flac
     9:21.07       98976908    ---   --   ---xx   gd1978-01-11d2t08.flac
     7:53.61       83580716    ---   --   ---xx   gd1978-01-11d2t09.flac
     1:33.70       16569884    ---   --   ---xx   gd1978-01-11d2t10.flac
     4:55.62       52183868    ---   --   ---xx   gd1978-01-11d2t11.flac
   144:58.11     1534354260 B                     (totals for 27 files, 0.6454 overall compression ratio)



More information about the bittorrent mailing list