[bittorrent] gd92-06-14.sbd.miller.89071.sbeok.flac16

Automated Mailer noreply-bt.e at etree.org
Wed Jan 5 13:39:20 MST 2011


Band:           Grateful Dead
Torrent Name:   gd92-06-14.sbd.miller.89071.sbeok.flac16
Uploaded by:    WHARFRAT73
DB Link:        http://db.etree.org/shn/89071
Details:        http://bt.etree.org/details.php?id=541539

Contact the seeder at http://db.etree.org/WHARFRAT73

If the link to this show does not work, it was probably removed for
being non-trade-friendly.

Description / text file:
-------------------------
Grateful Dead - June 14, 1992
Giants Stadium - East Rutherford, NJ

Recording Info:
SBD -> Dat -> Cassette Master (TDK SA-X100)

Transfer Info:
Cassette Master (Nakamichi DR-1) -> Sound Devices 744T (24bit/48k) ->
Samplitude Professional v9.12 -> FLAC/16
(2 Discs Audio / 2 Discs FLAC)

All Transfers and Mastering By Charlie Miller
charliemiller87 at earthlink.net
December 14, 2007

Notes:
-- Disc change is seamless
-- No patches were needed since there were overlaps at the tape flips
-- The band starts playing Smokestack Lightning but Weir sings Spoonful
-- Steve Miller on guitar for Space through Morning Dew

Set 1:
d1t01 - Shakedown Street
d1t02 - Walkin' Blues
d1t03 - Candyman
d1t04 - Desolation Row
d1t05 - Jack-A-Roe
d1t06 - Picasso Moon ->
d1t07 - Don't Ease Me In

Set 2:
d1t08 - Samson And Delilah
d1t09 - Ship Of Fools
d2t01 - Way To Go Home
d2t02 - Corrina ->
d2t03 - Drums ->
d2t04 - Space ->
d2t05 - Spoonful ->
d2t06 - The Other One ->
d2t07 - Morning Dew

Encore:
d2t08 - Baba O'Riley ->
d2t09 - Tomorrow Never Knows


SHNTOOL OUTPUT:
    length     expanded size   cdr  WAVE problems filename
    12:12.58      129261260    ---   --   -----   gd92-06-14d1t01.wav
     7:56.48       84079340    ---   --   -----   gd92-06-14d1t02.wav
     7:14.08       76576460    ---   --   -----   gd92-06-14d1t03.wav
    12:24.04      131251052    ---   --   -----   gd92-06-14d1t04.wav
     5:36.61       59413916    ---   --   -----   gd92-06-14d1t05.wav
     6:36.23       69908540    ---   --   -----   gd92-06-14d1t06.wav
     3:18.21       34976636    ---   --   -----   gd92-06-14d1t07.wav
     8:13.30       87035804    ---   --   -----   gd92-06-14d1t08.wav
     7:51.01       83086796    ---   --   -----   gd92-06-14d1t09.wav
     6:11.59       65583212    ---   --   -----   gd92-06-14d2t01.wav
    10:02.00      106192844    ---   --   -----   gd92-06-14d2t02.wav
    16:11.38      171373820    ---   --   -----   gd92-06-14d2t03.wav
     8:40.01       91730396    ---   --   -----   gd92-06-14d2t04.wav
     5:15.59       55704812    ---   --   -----   gd92-06-14d2t05.wav
     6:29.50       68737244    ---   --   -----   gd92-06-14d2t06.wav
    10:26.47      110536988    ---   --   -----   gd92-06-14d2t07.wav
     4:06.34       43474412    ---   --   -----   gd92-06-14d2t08.wav
     3:51.06       40762556    ---   --   -----   gd92-06-14d2t09.wav
   142:38.23     1509686088 B                     (totals for 18 files)




More information about the bittorrent mailing list