[bittorrent] gd92-06-11.sbd.miller.90105.sbeok.flac16

Automated Mailer noreply-bt.e at etree.org
Wed Jan 5 06:02:01 MST 2011


Band:           Grateful Dead
Torrent Name:   gd92-06-11.sbd.miller.90105.sbeok.flac16
Uploaded by:    WHARFRAT73
DB Link:        http://db.etree.org/shn/90105
Details:        http://bt.etree.org/details.php?id=541535

Contact the seeder at http://db.etree.org/WHARFRAT73

If the link to this show does not work, it was probably removed for
being non-trade-friendly.

Description / text file:
-------------------------
Grateful Dead - June 11, 1992
Knickerbocker Arena - Albany, NY

Recording Info:
SBD -> Dat -> Cassette Master (TDK SA-X100)

Transfer Info:
Cassette Master (Nakamichi DR-1) -> Sound Devices 744T (24bit/96k) ->
Samplitude Professional v10.02 -> FLAC/16
(3 Discs Audio / 2 Discs FLAC)

All Transfers and Mastering By Charlie Miller
charliemiller87 at earthlink.net
February 21, 2008

Notes:
-- Set 2 is seamless

Set 1:
d1t01 - Bertha
d1t02 - New Minglewood Blues
d1t03 - Row Jimmy
d1t04 - Queen Jane Approximately
d1t05 - Dire Wolf
d1t06 - Beat It On Down The Line
d1t07 - Loose Lucy
d1t08 - The Music Never Stopped

Set 2:
d2t01 - Foolish Heart ->
d2t02 - Playin' In The Band ->
d2t03 - Uncle John's Band ->
d2t04 - Playin' Jam ->
d2t05 - Drums ->
d3t01 - Space ->
d3t02 - I Need A Miracle ->
d3t03 - Wharf Rat ->
d3t04 - Around And Around

Encore:
d3t05 - The Mighty Quinn (Quinn The Eskimo)


SHNTOOL OUTPUT:
    length     expanded size   cdr  WAVE problems filename
     7:11.44       76131932    ---   --   -----   gd92-06-11d1t01.wav
     8:11.68       86772380    ---   --   -----   gd92-06-11d1t02.wav
    11:31.27      121955948    ---   --   -----   gd92-06-11d1t03.wav
     7:21.26       77853596    ---   --   -----   gd92-06-11d1t04.wav
     4:32.44       48084332    ---   --   -----   gd92-06-11d1t05.wav
     3:30.23       37098140    ---   --   -----   gd92-06-11d1t06.wav
     7:41.50       81438044    ---   --   -----   gd92-06-11d1t07.wav
     7:42.15       81532124    ---   --   -----   gd92-06-11d1t08.wav
    11:06.27      117545948    ---   --   -----   gd92-06-11d2t01.wav
    10:22.68      109880780    ---   --   -----   gd92-06-11d2t02.wav
     9:54.36      104866316    ---   --   -----   gd92-06-11d2t03.wav
     1:18.62       13905068    ---   --   -----   gd92-06-11d2t04.wav
    18:07.05      191758604    ---   --   -----   gd92-06-11d2t05.wav
    10:29.60      111096764    ---   --   -----   gd92-06-11d3t01.wav
     4:00.52       42458348    ---   --   -----   gd92-06-11d3t02.wav
     8:57.05       94738604    ---   --   -----   gd92-06-11d3t03.wav
    10:24.72      110242988    ---   --   -----   gd92-06-11d3t04.wav
     4:36.67       48844028    ---   --   -----   gd92-06-11d3t05.wav
   147:02.01     1556203944 B                     (totals for 18 files)




More information about the bittorrent mailing list