[bittorrent] Club d'Elf W/John Medeski.:-:. Calderwood Courtyard/Museum Of Fine Arts- Boston, MA 2003-07-02.ccm4.flac16 *W/MEDESKI **UNCIRCULATED SOUNDCHECK INCLUDED

Automated Mailer noreply-bt.e at etree.org
Tue Jan 4 15:05:38 MST 2011


Band:           Club d'Elf
Torrent Name:   Club d'Elf W/John Medeski.:-:. Calderwood Courtyard/Museum Of Fine Arts- Boston, MA 2003-07-02.ccm4.flac16 *W/MEDESKI **UNCIRCULATED SOUNDCHECK INCLUDED
Uploaded by:    newplanet7
DB Link:        
Details:        http://bt.etree.org/details.php?id=541521

Contact the seeder at http://db.etree.org/newplanet7

If the link to this show does not work, it was probably removed for
being non-trade-friendly.

Description / text file:
-------------------------
Club d'Elf
July 3, 2003
Calderwood Courtyard/Museum Of Fine Arts
Boston, MA


SOURCE:
ONSTAGE- Schoeps ccm4~> Sonosax SX-M2~> A/D 1000~> D100

RECORDED BY:
Team Dave- Dave Flaschner & Dave Dumas

RE-TRACK~>FLAC:
-FLAC~> Traders Little Helper(decode)~> 
-SHNTOOL *join (one big wav)~>
-CDWAVE (re-tracking)
-Traders Little Helper (SBE's, FLAC LVL Eight)
-Foobar2000 Live Show Tagger
DONE BY newplanet7 On 1/04/2011

THE PLAYERS:
Mike Rivard - Bass, Sentir
Erik Kerr- Drums
Brahim Fribgane - Oud, Doumbek
Dave Tronzo - Slide Guitar
John Medeski - Keyboards
Daniel Karzwak - Beatbox

ONE SET
DISC ONE:
01) ::SOUNDCHECK::
02) Intro				
03) Bass Beatbox->				
04) Moroccan Tune					
05) Brahim Tune
06) Gnawa Tune (Howara)~>
 
DISC TWO:
01) Trance Meeting~>
02) Mogador~>
03) The Tingler
04) ::RIVARD/INTROS::
05) Sidi Rabi

    length     expanded size    cdr  WAVE problems  fmt   ratio  filename
    13:52.51      146884796 B   ---   --   -----    wav  1.0000  delf2003-07-02d1t01.wav
     2:35.35       27424364 B   ---   --   -----    wav  1.0000  delf2003-07-02d1t02.wav
    13:07.14      138859772 B   ---   --   -----    wav  1.0000  delf2003-07-02d1t03.wav
     9:02.26       95669996 B   ---   --   -----    wav  1.0000  delf2003-07-02d1t04.wav
    16:32.04      174998252 B   ---   --   -----    wav  1.0000  delf2003-07-02d1t05.wav
    15:42.22      166220588 B   ---   --   -----    wav  1.0000  delf2003-07-02d1t06.wav
    13:58.18      147865580 B   ---   --   -----    wav  1.0000  delf2003-07-02d2t01.wav
    15:53.24      168165692 B   ---   --   -----    wav  1.0000  delf2003-07-02d2t02.wav
    25:32.30      270315404 B   ---   --   -----    wav  1.0000  delf2003-07-02d2t03.wav
     1:40.05       17651804 B   ---   --   -----    wav  1.0000  delf2003-07-02d2t04.wav
    11:07.13      117689420 B   ---   --   -----    wav  1.0000  delf2003-07-02d2t05.wav
   139:03.17     1471745668 B                            1.0000  (11 files)




More information about the bittorrent mailing list