[bittorrent] furthur2010-12-31_2011-01-01.nak300.pmd670.gearing.terrapinj.xxxxxx.sbeok.flac16

Automated Mailer noreply-bt.e at etree.org
Mon Jan 3 06:00:57 MST 2011


Band:           Furthur
Torrent Name:   furthur2010-12-31_2011-01-01.nak300.pmd670.gearing.terrapinj.xxxxxx.sbeok.flac16
Uploaded by:    terrapinstation dot org
DB Link:        
Details:        http://bt.etree.org/details.php?id=541484

Contact the seeder at http://db.etree.org/terrapinstation dot org

If the link to this show does not work, it was probably removed for
being non-trade-friendly.

Description / text file:
-------------------------
Furthur
Bill Graham Civic Center
San Francisco, California
December 31st 2010

nak300 > marantz pmd670 > sd card > ftp(secure) > cdwav 197*(44.1/16) > tlh > flac level 7

recorded & transfered to by lou gearing(ratdog1 at surewest.net)
tracked, processed & flac'd by terrapin joe esq(owner at terrapinstation.org)

SBE Free(see below)
*/cdwav 198 2nd/3rd sets tracked with


1st set:

Alligator 
Big Bad Blues 
Caution 
Wharf Rat 
Sittin' On Top Of The World 
High On A Mtn 
Cumberland

2nd set:
 
Cassidy 
Mountain Song 
I Know You Rider 
The Other One 
Let It Grow 
Stella Blue 
Viola Lee Blues 
The Golden Road 

3rd set:

2011 Parade
We Love You 
Sugar Magnolia 
The Wheel 
Uncle John's Band 
Unbroken Chain 
Terrapin (Complete) 
Help/Slip/Franklin's 
Truckin' 

Encore 
One More Saturday Night


TLH & SHNTOOL Outputs:(sets 1, 2 & 3)

Furthur2010-12-31d1t01.wav:  audio data is cut on a sector boundary.
Furthur2010-12-31d1t02.wav:  audio data is cut on a sector boundary.
Furthur2010-12-31d1t03.wav:  audio data is cut on a sector boundary.
Furthur2010-12-31d1t04.wav:  audio data is cut on a sector boundary.
Furthur2010-12-31d1t05.wav:  audio data is cut on a sector boundary.
Furthur2010-12-31d1t06.wav:  audio data is cut on a sector boundary.
Furthur2010-12-31d1t07.wav:  audio data is cut on a sector boundary.
Furthur2010-12-31d1t08.wav:  audio data is cut on a sector boundary.
Furthur2010-12-31d2t01.wav:  audio data is cut on a sector boundary.
Furthur2010-12-31d2t02.wav:  audio data is cut on a sector boundary.
Furthur2010-12-31d2t03.wav:  audio data is cut on a sector boundary.
Furthur2010-12-31d2t04.wav:  audio data is cut on a sector boundary.
Furthur2010-12-31d2t05.wav:  audio data is cut on a sector boundary.
Furthur2010-12-31d2t06.wav:  audio data is cut on a sector boundary.
Furthur2010-12-31d2t07.wav:  audio data is cut on a sector boundary.
Furthur2010-12-31d2t08.wav:  audio data is cut on a sector boundary.
Furthur2011-01-01d3t01.wav:  audio data is cut on a sector boundary.
Furthur2011-01-01d3t02.wav:  audio data is cut on a sector boundary.
Furthur2011-01-01d3t03.wav:  audio data is cut on a sector boundary.
Furthur2011-01-01d3t04.wav:  audio data is cut on a sector boundary.
Furthur2011-01-01d3t05.wav:  audio data is cut on a sector boundary.
Furthur2011-01-01d3t06.wav:  audio data is cut on a sector boundary.
Furthur2011-01-01d4t01.wav:  audio data is cut on a sector boundary.
Furthur2011-01-01d4t02.wav:  audio data is cut on a sector boundary.
Furthur2011-01-01d4t03.wav:  audio data is cut on a sector boundary.
Furthur2011-01-01d4t04.wav:  audio data is cut on a sector boundary.
Furthur2011-01-01d4t05.wav:  audio data is cut on a sector boundary.
Furthur2011-01-01d4t06.wav:  audio data is cut on a sector boundary.

There were no sector boundary errors.

    length     expanded size    cdr  WAVE problems  fmt   ratio  filename
     2:57.15       31258124 B   ---   --   -----    wav  1.0000  Furthur2010-12-31d1t01.wav
     5:45.60       60999164 B   ---   --   -----    wav  1.0000  Furthur2010-12-31d1t02.wav
    10:53.15      115224524 B   ---   --   -----    wav  1.0000  Furthur2010-12-31d1t03.wav
     9:34.00      101253644 B   ---   --   -----    wav  1.0000  Furthur2010-12-31d1t04.wav
    11:42.15      123868124 B   ---   --   -----    wav  1.0000  Furthur2010-12-31d1t05.wav
     4:24.60       46710764 B   ---   --   -----    wav  1.0000  Furthur2010-12-31d1t06.wav
     7:13.60       76522364 B   ---   --   -----    wav  1.0000  Furthur2010-12-31d1t07.wav
     8:45.30       92680604 B   ---   --   -----    wav  1.0000  Furthur2010-12-31d1t08.wav
    12:21.00      130712444 B   ---   --   -----    wav  1.0000  Furthur2010-12-31d2t01.wav
    10:56.15      115753724 B   ---   --   -----    wav  1.0000  Furthur2010-12-31d2t02.wav
    10:21.00      109544444 B   ---   --   -----    wav  1.0000  Furthur2010-12-31d2t03.wav
    12:17.00      130006844 B   ---   --   -----    wav  1.0000  Furthur2010-12-31d2t04.wav
    12:28.60      132088364 B   ---   --   -----    wav  1.0000  Furthur2010-12-31d2t05.wav
     9:51.45      104358284 B   ---   --   -----    wav  1.0000  Furthur2010-12-31d2t06.wav
     8:21.30       88447004 B   ---   --   -----    wav  1.0000  Furthur2010-12-31d2t07.wav
     6:22.22       67436588 B   ---   --   -----    wav  1.0000  Furthur2010-12-31d2t08.wav
    12:42.61      134560316 B   ---   --   -----    wav  1.0000  Furthur2011-01-01d3t01.wav
     5:27.59       57821612 B   ---   --   -----    wav  1.0000  Furthur2011-01-01d3t02.wav
     9:07.40       96584924 B   ---   --   -----    wav  1.0000  Furthur2011-01-01d3t03.wav
     7:48.35       82637564 B   ---   --   -----    wav  1.0000  Furthur2011-01-01d3t04.wav
    11:30.47      121826588 B   ---   --   -----    wav  1.0000  Furthur2011-01-01d3t05.wav
    16:01.18      169562780 B   ---   --   -----    wav  1.0000  Furthur2011-01-01d3t06.wav
    23:13.04      245734652 B   ---   --   -----    wav  1.0000  Furthur2011-01-01d4t01.wav
     4:39.28       49281500 B   ---   --   -----    wav  1.0000  Furthur2011-01-01d4t02.wav
     5:00.06       52934156 B   ---   --   -----    wav  1.0000  Furthur2011-01-01d4t03.wav
     9:50.71      104243036 B   ---   --   -----    wav  1.0000  Furthur2011-01-01d4t04.wav
    19:07.28      202396700 B   ---   --   -----    wav  1.0000  Furthur2011-01-01d4t05.wav
     7:56.09       83987612 B   ---   --   -----    wav  1.0000  Furthur2011-01-01d4t06.wav
   276:41.08     2928436448 B                            1.0000  (28 files)




More information about the bittorrent mailing list