[bittorrent] Railroad Earth Ogden Theatre Denver, Colorado 1/1/2011 (Schoeps CCM4V'S FOB)

Automated Mailer noreply-bt.e at etree.org
Sun Jan 2 21:03:02 MST 2011


Band:           Railroad Earth
Torrent Name:   Railroad Earth Ogden Theatre Denver, Colorado 1/1/2011 (Schoeps CCM4V'S FOB)
Uploaded by:    zmanatl
DB Link:        
Details:        http://bt.etree.org/details.php?id=541473

Contact the seeder at http://db.etree.org/zmanatl

If the link to this show does not work, it was probably removed for
being non-trade-friendly.

Description / text file:
-------------------------
Railroad Earth
Ogden Theatre
Denver, Colorado
1/1/2011

Source: Schoeps CCM4V'S(din)>Lunatec V2>Benchmark AD2K>
Sound Devices 722 (24/48)
FOB/DFC/KFC/ZFC/AARP Off First Rail, 35' From Stage, 7 1/2' High
DSP: Sound Devices 722>Sound Forge 9.0>CD Wave>flac(16)
Recorded By: Z-Man
Seeded By: Z-Man

Disc I 1st Set

01 Where Songs Begin
02 Lordy, Lordy
03 Drag Him Down
04 Came Up Smilin'
05 Birds Of America
06 Black Bear 
07 Magic Foot >
08 Luxury Liner

Disc II 2nd Set

01 *Old Dangerfiled
02 Way Of The Buffalo
03 Give That Boy A Hand 
04 #@Little Bit O' Me
05 #@Jerusalem Ridge
06 Crossin' The Gap
07 Goat  

Disc III 2nd Set Con't

01 Countdown To New Year's Eve Revisited >
02 Auld Lang Syne >
03 Tore Up Over you 
04 Lovin' You
05 Too Much Information
06 I Am A Mess 
07 RV >
08 Auld Lang Syne
Encore:
09 #@Genesis

* With Patrick Sites Of White Water Ramble On Mandolin
# With Bridget Law Of Elephant Revival On Violin
@ With Adam Galblum Of White Water Ramble On Violin

Railroad Earth:

Todd Sheaffer - Lead Vocals And Acoustic Guitar
Tim Carbone - Violin, Guitar, And Vocals
John Skehan - Mandolin And Vocals
Andy Goessling - Acoustic Guitar, Banjo, Dobro, Mandolin, Flute, Pennywhistle, Saxophone And Vocals
Carey Harmon - Drums And Vocals
Andrew Altman - Upright Bass

Flac Fingerprint 

rre2011-01-01d01t01.flac:494a4fe98af02ebef8b8d8a8a4a2e505
rre2011-01-01d01t02.flac:4d8dad0f0ee063241cbf98c11b5d0fe3
rre2011-01-01d01t03.flac:62859a6189057627a9fe5e6195891187
rre2011-01-01d01t04.flac:c6eb87933efe8e2ad7ba7e5879a7088e
rre2011-01-01d01t05.flac:2e9ff7efd45bf3cd1c4a1e5f8fd0557c
rre2011-01-01d01t06.flac:34e68d94e2b0c68c8ecbf0ab017e4bf2
rre2011-01-01d01t07.flac:a9b46baa9c9ecd915914ce0d6cb13dc4
rre2011-01-01d01t08.flac:caed17a54604ec6d67a422e19d62b33c
rre2011-01-01d02t01.flac:cdb32c890b9403b02c76b8c46c285f75
rre2011-01-01d02t02.flac:8cd0e824f7dc5e551e85a8aedbd4da67
rre2011-01-01d02t03.flac:e721218282fef5d74e38f37194d03bb3
rre2011-01-01d02t04.flac:11eba18899e4806185059a526939b255
rre2011-01-01d02t05.flac:3593278d2d338129030ed08d4b7f44d3
rre2011-01-01d02t06.flac:93f1e522f1ca0edbb4407c3c97ed6a55
rre2011-01-01d02t07.flac:5a5086f9eb318271b2018d269af02054
rre2011-01-01d03t01.flac:b1bd4b5d1c61a2dcc4d5a627d0150663
rre2011-01-01d03t02.flac:e275895ac5a2ebe892920d246ea8f270
rre2011-01-01d03t03.flac:958ae0703367f815cebd44d094ef9320
rre2011-01-01d03t04.flac:896ecfea824a46c0397e8ba5c000b8bd
rre2011-01-01d03t05.flac:76c590b9a83e6dfe86975a5ff088d673
rre2011-01-01d03t06.flac:3b75c892cc951e4d68932724eaebd91b
rre2011-01-01d03t07.flac:382b6f14c58c25bd9ed15570378445e0
rre2011-01-01d03t08.flac:94543aa66bdc8f3e21f19a9878232b8f
rre2011-01-01d03t09.flac:079739e94e632f9917351490d2e021cb

Shntool 

    length     expanded size    cdr  WAVE problems  fmt   ratio  filename
     7:41.16       81358076 B   ---   --   ---xx   flac  0.5089  rre2011-01-01d01t01.flac
     4:35.37       48597068 B   ---   --   ---xx   flac  0.5075  rre2011-01-01d01t02.flac
     5:28.57       57993308 B   ---   --   ---xx   flac  0.5095  rre2011-01-01d01t03.flac
     6:12.15       65656124 B   ---   --   ---xx   flac  0.4801  rre2011-01-01d01t04.flac
    13:59.11      148025516 B   ---   --   ---xx   flac  0.5126  rre2011-01-01d01t05.flac
    12:03.16      127574876 B   ---   --   ---xx   flac  0.4224  rre2011-01-01d01t06.flac
     3:16.31       34647356 B   ---   --   ---xx   flac  0.5256  rre2011-01-01d01t07.flac
     9:36.25      101665244 B   ---   --   ---xx   flac  0.5420  rre2011-01-01d01t08.flac
     8:44.63       92581820 B   ---   --   ---xx   flac  0.4966  rre2011-01-01d02t01.flac
     7:58.26       84380396 B   ---   --   ---xx   flac  0.5151  rre2011-01-01d02t02.flac
     5:40.47       60086588 B   ---   --   ---xx   flac  0.4809  rre2011-01-01d02t03.flac
     9:37.51      101902796 B   ---   --   ---xx   flac  0.4718  rre2011-01-01d02t04.flac
    10:43.67      113582828 B   ---   --   ---xx   flac  0.4895  rre2011-01-01d02t05.flac
     4:33.42       48256028 B   ---   --   ---xx   flac  0.4973  rre2011-01-01d02t06.flac
    11:27.49      121302092 B   ---   --   ---xx   flac  0.5066  rre2011-01-01d02t07.flac
     0:46.74        8288492 B   ---   --   ---xx   flac  0.4037  rre2011-01-01d03t01.flac
     0:29.60        5256764 B   ---   --   ---xx   flac  0.4667  rre2011-01-01d03t02.flac
     7:46.50       82320044 B   ---   --   ---xx   flac  0.4968  rre2011-01-01d03t03.flac
     4:42.70       49909484 B   ---   --   ---xx   flac  0.4093  rre2011-01-01d03t04.flac
     5:42.27       60392348 B   ---   --   ---xx   flac  0.4795  rre2011-01-01d03t05.flac
    16:50.61      178307516 B   ---   --   ---xx   flac  0.5109  rre2011-01-01d03t06.flac
     6:38.37       70294268 B   ---   --   ---xx   flac  0.4425  rre2011-01-01d03t07.flac
     0:39.51        6999596 B   ---   --   ---xx   flac  0.4151  rre2011-01-01d03t08.flac
     9:26.45       99948284 B   ---   --   ---xx   flac  0.3275  rre2011-01-01d03t09.flac
   174:43.53     1849326912 B                            0.4821  (24 files)


 



More information about the bittorrent mailing list