[bittorrent] Phish 2011-01-01 MSG NYC, NY Schoeps MK41/CMC6>Sonosax SX-M2>Apogee Mini-me**16bit**

Automated Mailer noreply-bt.e at etree.org
Sun Jan 2 20:34:36 MST 2011


Band:           Phish
Torrent Name:   Phish 2011-01-01 MSG NYC,NY Schoeps MK41/CMC6>Sonosax SX-M2>Apogee Mini-me**16bit**
Uploaded by:    andyjah
DB Link:        
Details:        http://bt.etree.org/details.php?id=541472

Contact the seeder at http://db.etree.org/andyjah

If the link to this show does not work, it was probably removed for
being non-trade-friendly.

Description / text file:
-------------------------
Phish
2011-01-01
Madison Square Garden
NYC,NY

Recorded and transferred by Andy Murray

DIN Just Right of center from Taper's section
Schoeps MK41>KC5>CMC6>Sonosax SX-M2>Apogee Mini-me(aes out 24bit/96khz)>COAX>Edirol R-44  
SDHC Card>usb>Macbook Pro>Wave Editor(tracking,fades,resample(isotope)/dither(mbit+) to 16bit/44.1k)>XAct(FLAC 8,ffp,fix sbe)

Big thanks to TaylorC and Beth for the clamp space 

2 Discs
3 Sets

Disc 1:
Set 1:

01 Intro
02 My Soul
03 Tube > 
04 Runaway Jim > 
05 Foam
06 Guelah Papyrus > 
07 The Divided Sky
08 Round Room > 
09 Walk Away > 
10 Gotta Jibboo > 

Disc 2:
Set 1 cont…

01 Reba[1]
02 Walls of the Cave

Set 2: 

03 Intro
04 Crosseyed and Painless > 
05 Twist[2] > 
06 Simple

Disc 3:
Set 2 cont…

01 Sneakin' Sally through the Alley > 
02 Makisupa Policeman[3] > 
03 David Bowie

Encore: 
04 Fee[4]
05 Frankenstein[5]

[1] No whistling.
[2] Manteca quotes from Trey.
[3] "I went home late last night after doing the New Year's stunt, I laid back on my couch and rolled myself a blunt" lyrics. "Kick drum solo."
[4] Trey sang verses through megaphone.
[5] Page on keytar.

Notes: Round Room was played for the first time since July 13, 2003 (140 shows). Twist contained Manteca quotes from Trey. Makispua included the lyrics "I went home late last night after doing the New Year's stunt, I laid back on my couch and rolled myself a blunt" and also featured a "kick drum solo." Frankenstein featured Page on keytar.

    length     expanded size    cdr  WAVE problems  fmt   ratio  filename
     0:36.50        6468044 B   ---   --   -----  ph2011-01-01_mk41_1644_d1t01.wav
     5:53.15       62304524 B   ---   --   -----  ph2011-01-01_mk41_1644_d1t02.wav
     4:40.15       49427324 B   ---   --   -----  ph2011-01-01_mk41_1644_d1t03.wav
     7:33.17       79949228 B   ---   --   -----  ph2011-01-01_mk41_1644_d1t04.wav
     8:15.61       87461516 B   ---   --   -----  ph2011-01-01_mk41_1644_d1t05.wav
     5:44.20       60728684 B   ---   --   -----  ph2011-01-01_mk41_1644_d1t06.wav
    15:39.34      165719612 B   ---   --   -----  ph2011-01-01_mk41_1644_d1t07.wav
     5:17.67       56076428 B   ---   --   -----  ph2011-01-01_mk41_1644_d1t08.wav
     6:48.13       72001820 B   ---   --   -----  ph2011-01-01_mk41_1644_d1t09.wav
    10:13.13      108163820 B   ---   --   -----  ph2011-01-01_mk41_1644_d1t10.wav
    12:24.41      131338076 B   ---   --   -----  ph2011-01-01_mk41_1644_d2t01.wav
    14:01.18      148394780 B   ---   --   -----  ph2011-01-01_mk41_1644_d2t02.wav
     0:33.34        5901212 B   ---   --   -----  ph2011-01-01_mk41_1644_d2t03.wav
    12:06.47      128176988 B   ---   --   -----  ph2011-01-01_mk41_1644_d2t04.wav
     9:43.41      102937676 B   ---   --   -----  ph2011-01-01_mk41_1644_d2t05.wav
    11:34.36      122506316 B   ---   --   -----  ph2011-01-01_mk41_1644_d2t06.wav
     9:33.70      101241884 B   ---   --   -----  ph2011-01-01_mk41_1644_d3t01.wav
     7:37.51       80734796 B   ---   --   -----  ph2011-01-01_mk41_1644_d3t02.wav
    15:00.58      158896460 B   ---   --   -----  ph2011-01-01_mk41_1644_d3t03.wav
     6:13.19       65841932 B   ---   --   -----  ph2011-01-01_mk41_1644_d3t04.wav
     6:03.20       64080284 B   ---   --   -----  ph2011-01-01_mk41_1644_d3t05.wav
   175:34.65     1858351404 B                            1.0000  (21 files)



More information about the bittorrent mailing list