[bittorrent] Phish 2010-12-30 MSG NYC, NY Schoeps MK41/CMC6>Sonosax SX-M2>Apogee Mini-me**16bit**

Automated Mailer noreply-bt.e at etree.org
Sun Jan 2 19:38:12 MST 2011


Band:           Phish
Torrent Name:   Phish 2010-12-30 MSG NYC,NY Schoeps MK41/CMC6>Sonosax SX-M2>Apogee Mini-me**16bit**
Uploaded by:    andyjah
DB Link:        
Details:        http://bt.etree.org/details.php?id=541463

Contact the seeder at http://db.etree.org/andyjah

If the link to this show does not work, it was probably removed for
being non-trade-friendly.

Description / text file:
-------------------------
Phish
2010-12-30
Madison Square Garden
NYC,NY

Recorded and transferred by Andy Murray

DIN Right of center from Taper's section
Schoeps MK41>KC5>CMC6>Sonosax SX-M2>Apogee Mini-me(aes out 24bit/96khz)>COAX>Edirol R-44  
SDHC Card>usb>Macbook Pro>Wave Editor(tracking,fades,add gain(first minute of cities),resample(isotope)/dither(mbit+) to 16bit/44.1k)>XAct(FLAC 8,ffp,fix sbe)

Big thanks to TaylorC and Beth for the clamp space

3 Discs
2 Sets

Disc 1:
Set 1:

01 Intro
02 Cities
03 Chalk Dust Torture
04 Gumbo > 
05 Quinn the Eskimo
06 Halley's Comet > 
07 Camel Walk[1]
08 Maze
09 Driver
10 Bathtub Gin
11 Fat Man in the Bathtub
12 Timber (Jerry) > 
13 Golgi Apparatus

Disc 2:
Set 1 cont...

01 Character Zero

Set 2: 

02 Intro
03 Tweezer >
04 Light > 
05 Theme From the Bottom > 
06 My Friend, My Friend[2]
07 Axilla > 
08 Fluffhead > 

Disc 3:
Set 2 cont… 

01 Boogie On Reggae Woman -> 
02 Also Sprach Zarathustra > 
03 Suzy Greenberg

Encore: 

04 Run Like an Antelope > 
05 Tweezer Reprise

[1] P.A. cut out.
[2] No "Myfe" ending.

Notes: The P.A. cut out during Camel Walk. My Friend did not contain the "Myfe" ending. 

    length     expanded size    cdr  WAVE problems  fmt   ratio  filename
     1:05.13       11496620 B   ---   --   -----  ph2010-12-30_mk41_1644_d1t01.wav
     5:20.70       56612684 B   ---   --   -----  ph2010-12-30_mk41_1644_d1t02.wav
     6:34.73       69673340 B   ---   --   -----  ph2010-12-30_mk41_1644_d1t03.wav
     4:45.08       50292860 B   ---   --   -----  ph2010-12-30_mk41_1644_d1t04.wav
     4:25.74       46920092 B   ---   --   -----  ph2010-12-30_mk41_1644_d1t05.wav
     6:10.64       65418572 B   ---   --   -----  ph2010-12-30_mk41_1644_d1t06.wav
     4:53.09       51706412 B   ---   --   -----  ph2010-12-30_mk41_1644_d1t07.wav
    11:27.65      121339724 B   ---   --   -----  ph2010-12-30_mk41_1644_d1t08.wav
     4:15.53       45106700 B   ---   --   -----  ph2010-12-30_mk41_1644_d1t09.wav
    12:34.69      133167932 B   ---   --   -----  ph2010-12-30_mk41_1644_d1t10.wav
     5:31.61       58531916 B   ---   --   -----  ph2010-12-30_mk41_1644_d1t11.wav
     5:56.33       62876060 B   ---   --   -----  ph2010-12-30_mk41_1644_d1t12.wav
     4:43.22       49972988 B   ---   --   -----  ph2010-12-30_mk41_1644_d1t13.wav
     7:41.43       81421580 B   ---   --   -----  ph2010-12-30_mk41_1644_d2t01.wav
     0:34.64        6148172 B   ---   --   -----  ph2010-12-30_mk41_1644_d2t02.wav
    18:15.57      193292108 B   ---   --   -----  ph2010-12-30_mk41_1644_d2t03.wav
     9:42.58      102801260 B   ---   --   -----  ph2010-12-30_mk41_1644_d2t04.wav
     6:55.62       73351868 B   ---   --   -----  ph2010-12-30_mk41_1644_d2t05.wav
     5:59.40       63421724 B   ---   --   -----  ph2010-12-30_mk41_1644_d2t06.wav
     3:21.73       35628140 B   ---   --   -----  ph2010-12-30_mk41_1644_d2t07.wav
    14:09.22      149815388 B   ---   --   -----  ph2010-12-30_mk41_1644_d2t08.wav
     5:05.52       53924348 B   ---   --   -----  ph2010-12-30_mk41_1644_d3t01.wav
     7:13.03       76388300 B   ---   --   -----  ph2010-12-30_mk41_1644_d3t02.wav
     9:38.24      102015692 B   ---   --   -----  ph2010-12-30_mk41_1644_d3t03.wav
    10:39.17      112759628 B   ---   --   -----  ph2010-12-30_mk41_1644_d3t04.wav
     3:44.32       39588908 B   ---   --   -----  ph2010-12-30_mk41_1644_d3t05.wav
   180:48.36     1913673016 B                            1.0000  (26 files)



More information about the bittorrent mailing list