[bittorrent] Warren Haynes Christmas Pre-Jam 12/10/2010 The Orange Peel Asheville, NC (fm from stream)

Automated Mailer noreply-bt.e at etree.org
Sun Jan 2 10:00:06 MST 2011


Band:           Warren Haynes
Torrent Name:   Warren Haynes Christmas Pre-Jam 12/10/2010 The Orange Peel Asheville, NC (fm from stream)
Uploaded by:    datdork
DB Link:        
Details:        http://bt.etree.org/details.php?id=541441

Contact the seeder at http://db.etree.org/datdork

If the link to this show does not work, it was probably removed for
being non-trade-friendly.

Description / text file:
-------------------------
Warren Haynes Christmas Pre-Jam
12/10/2010
The Orange Peel
Asheville, NC

source:   wncw.org (stream) > Squeezebox Duet > Edirol R-44 @ 24/44.1
transfer: SDHC card > PC > wavelab 6.1 > cd wave > traders little helper (flac level 8)

recorded and transferred by Gordon Wilson


Warren Haynes

01. Introduction By Martin Anderson
02. Railroad Boy
03. Interview With Martin Anderson


Warren & Kevn Kinney

04. Workin' Class Hero %
05. Interview With Martin Anderson/DDBB Intro by Warren

% 2.5 mins spliced from Schoeps ccm4V's > Sound Devices 722 due to numerous drop outs on the stream


Dirty Dozen Brass Band

06. Charlie Doesn't >
07. Fire On The Bayou 
08. Uncleaned Water >
09. New Orleans Medley >
10. When the Saints Go Marching In
11. Feats Don't Fail Me Now 


John Bell

12. Introduction By Warren Haynes
13. Papa's Home
14. Silent Night >
15. Milk And Cookies > *
16. Silent Night
17. Christmas Katie #
18. Old Joe

* Ribs and Whiskey w/ X-mas Lyrics
# With Dirty Dozen Brass Band


Umphrey's McGee

19. Introduction By Brad Watson
20. In The Kitchen
21. Syncopated Strangers
22. Get In The Van
23. Resolutions > ^
24. Glory $

^ With Ivan Neville
$ With Ivan Neville & Mike Barnes On Guitar


Warren Haynes & Gregg Allman

25. Introduction By Uncle Dave
26. Midnight Rider
27. Come And Go Blues
28. Can't Be Satisfied
29. These Days
30. Melissa


Warren Haynes Pre-Jam All Star Band

Audley Freed/Kevn Kinney/Ivan Neville/Ron Johnson/Fred Eltringham

31. Introduction By Uncle Dave
32. I Ain't Waitin' on Tomorrow
33. Underground Umbrella

Warren Haynes/Ivan Neville/Ron Holloway/Ron Johnson

34. Papa Was A Rolling Stone

Steve Miller/Carlos Reyes

35. Introduction By Warren Haynes/Steve Banter
36. Nature Boy

Steve Miller/Carlos Reyes/Chris Myers/Ron Holloway/Mike Barnes/Ron Johnson

37. CC Rider 
38. I'm Tore Down
39. Snatch It Back And Hold It

Warren Haynes/Gregg Allman/Cody Dickenson/Ivan Neville/Ron Johnson/Fred Eltringham

40. Crossroads

Encore:
41. Key To The Highway




shntool 3.0.4
Copyright (C) 2000-2007 Jason Jordan <shnutils at freeshell.org>

    length     expanded size    cdr  WAVE problems  fmt   ratio  filename
     2:10.08       22950860 B   ---   --   ---xx   flac  0.5314  prejam2010-12-10t01.flac
     4:25.11       46771916 B   ---   --   ---xx   flac  0.5306  prejam2010-12-10t02.flac
     5:59.20       63374684 B   ---   --   ---xx   flac  0.5022  prejam2010-12-10t03.flac
     6:20.59       67170812 B   ---   --   ---xx   flac  0.4755  prejam2010-12-10t04.flac
     4:40.13       49422620 B   ---   --   ---xx   flac  0.5034  prejam2010-12-10t05.flac
     5:45.24       60914492 B   ---   --   ---xx   flac  0.5831  prejam2010-12-10t06.flac
     7:44.22       81901388 B   ---   --   ---xx   flac  0.5783  prejam2010-12-10t07.flac
     5:38.27       59686748 B   ---   --   ---xx   flac  0.5697  prejam2010-12-10t08.flac
     4:01.41       42608876 B   ---   --   ---xx   flac  0.5664  prejam2010-12-10t09.flac
     5:26.48       57619340 B   ---   --   ---xx   flac  0.5816  prejam2010-12-10t10.flac
    10:07.42      107173628 B   ---   --   ---xx   flac  0.5714  prejam2010-12-10t11.flac
     0:53.16        9386876 B   ---   --   ---xx   flac  0.5531  prejam2010-12-10t12.flac
     6:34.46       69609836 B   ---   --   ---xx   flac  0.5394  prejam2010-12-10t13.flac
     1:38.14       17320172 B   ---   --   ---xx   flac  0.5030  prejam2010-12-10t14.flac
     3:41.70       39149084 B   ---   --   ---xx   flac  0.4924  prejam2010-12-10t15.flac
     2:17.38       24256220 B   ---   --   ---xx   flac  0.5413  prejam2010-12-10t16.flac
     8:17.36       87755516 B   ---   --   ---xx   flac  0.5358  prejam2010-12-10t17.flac
     5:18.41       56191676 B   ---   --   ---xx   flac  0.5244  prejam2010-12-10t18.flac
     1:19.04       13945052 B   ---   --   ---xx   flac  0.5606  prejam2010-12-10t19.flac
     9:43.62      102987068 B   ---   --   ---xx   flac  0.5688  prejam2010-12-10t20.flac
     7:57.45       84248684 B   ---   --   ---xx   flac  0.5659  prejam2010-12-10t21.flac
     6:32.23       69202940 B   ---   --   ---xx   flac  0.5706  prejam2010-12-10t22.flac
     9:03.18       95827580 B   ---   --   ---xx   flac  0.5628  prejam2010-12-10t23.flac
     5:35.73       59265740 B   ---   --   ---xx   flac  0.5677  prejam2010-12-10t24.flac
     1:29.64       15850172 B   ---   --   ---xx   flac  0.5530  prejam2010-12-10t25.flac
     5:49.05       61575404 B   ---   --   ---xx   flac  0.5283  prejam2010-12-10t26.flac
     6:28.15       68478524 B   ---   --   ---xx   flac  0.5301  prejam2010-12-10t27.flac
     4:59.60       52884764 B   ---   --   ---xx   flac  0.5291  prejam2010-12-10t28.flac
     7:22.70       78133484 B   ---   --   ---xx   flac  0.5206  prejam2010-12-10t29.flac
     6:43.03       71096300 B   ---   --   ---xx   flac  0.5542  prejam2010-12-10t30.flac
     2:55.63       31018220 B   ---   --   ---xx   flac  0.5201  prejam2010-12-10t31.flac
     7:12.64       76355372 B   ---   --   ---xx   flac  0.5381  prejam2010-12-10t32.flac
    13:31.34      143140412 B   ---   --   ---xx   flac  0.5549  prejam2010-12-10t33.flac
     9:07.44       96594332 B   ---   --   ---xx   flac  0.5783  prejam2010-12-10t34.flac
     2:45.58       29242460 B   ---   --   ---xx   flac  0.5365  prejam2010-12-10t35.flac
     6:28.19       68487932 B   ---   --   ---xx   flac  0.5111  prejam2010-12-10t36.flac
     9:54.18      104823980 B   ---   --   ---xx   flac  0.5492  prejam2010-12-10t37.flac
     4:39.55       49345004 B   ---   --   ---xx   flac  0.5753  prejam2010-12-10t38.flac
     5:11.27       54923948 B   ---   --   ---xx   flac  0.5569  prejam2010-12-10t39.flac
    10:26.57      110560508 B   ---   --   ---xx   flac  0.5511  prejam2010-12-10t40.flac
     7:00.50       74205644 B   ---   --   ---xx   flac  0.5715  prejam2010-12-10t41.flac
   243:20.07     2575458268 B                            0.5481  (41 files)




More information about the bittorrent mailing list