[bittorrent] Great American Taxi Quixotes Denver, Colorado 1/1/2011 (Schoeps CCM4V'S FOB)

Automated Mailer noreply-bt.e at etree.org
Sat Jan 1 16:26:04 MST 2011


Band:           Great American Taxi
Torrent Name:   Great American Taxi Quixotes Denver, Colorado 1/1/2011 (Schoeps CCM4V'S FOB)
Uploaded by:    zmanatl
DB Link:        
Details:        http://bt.etree.org/details.php?id=541408

Contact the seeder at http://db.etree.org/zmanatl

If the link to this show does not work, it was probably removed for
being non-trade-friendly.

Description / text file:
-------------------------
Great American Taxi
Quixotes
Denver, Colorado
1/1/2011

Source: Schoeps CCM4V'S(din)>Lunatec V2>Benchmark AD2K>
Sound Devices 722 (24/48)
FOB/DFC/KFC/ZFC/AARP 10' From Stage, 7' High
DSP: Sound Devices 722>Sound Forge 9.0>CD Wave>flac(16)
Recorded By: Z-Man
Seeded By: Z-Man

Disc I 1st Set 

01 *Catfish John
02 *Instrumental
03 *The Shape I'm In
04 *Straw Man
05 *Nobody's Fault But Mine
06 *Reckless Habits
07 *#Ain't Gonna Work
08 *#I Know My Mother >
09 *#I Know You Rider 

Disc II 2nd Set

01 Vince Banter/Tuning
02 *^Dire Wolf
03 *^Cinched Up
04 *^One Of These Days >
05 *^Big River
06 *^The Swamp >
07 *^Superstition >
08 *^The Swamp
09 *#^Goin' 'Round The World
10 *#^The Road Goes On Forever 
11 *@^Stay Away Monday
12 *@Hey Babe, You Wanna Boogie
13 *@Whiskey Before Breakfast
Encore:
14 Thank You
15 #Good Night (Morning) To Boogie
16 #Wake And Bake

* With Adam Galblum Of White Water Ramble On Fiddle
# With Silas Herman On Guitar
@ With Silas Herman On Mandolin
^ With Paul Hoffman Of Greensky Bluegrass On Mandolin

Flac Fingerprint 

taxi2011-01-01d01t01.flac:4504d6427f5982d1a331c373c1f5827c
taxi2011-01-01d01t02.flac:de5dcffa2b86512febe6a8395aaa4f44
taxi2011-01-01d01t03.flac:5096f96d033fe3b5fd941be3b04e4f86
taxi2011-01-01d01t04.flac:7adb047d917bd8dde4e94fa5052192ba
taxi2011-01-01d01t05.flac:72a65a64259ad86d84187c596592df77
taxi2011-01-01d01t06.flac:a7e8624a6275716a3f28e5dee24cf688
taxi2011-01-01d01t07.flac:b5ceda3c09432407c273cdf873459778
taxi2011-01-01d01t08.flac:877f8ab11393c2727c3df8331f1cd026
taxi2011-01-01d01t09.flac:dd216776ff524f252531d75baab30547
taxi2011-01-01d02t01.flac:3ec4257e1a60edc403378ea0fd7388ef
taxi2011-01-01d02t02.flac:f0ea7043ee0a96b4cf72aa7911e0dd4f
taxi2011-01-01d02t03.flac:5dd33410e4a3f37ff3d75e2c5db9ec23
taxi2011-01-01d02t04.flac:b6946b092f076a153b55fab693f06be6
taxi2011-01-01d02t05.flac:c59011654767488ea96e26b2055d8f86
taxi2011-01-01d02t06.flac:765b4935d629494ca6d9e4ff68fd84df
taxi2011-01-01d02t07.flac:6fb51fb27491f3517a27820361397f07
taxi2011-01-01d02t08.flac:a0ec2b7fa73e4fb17d5c9e228ba3a8e3
taxi2011-01-01d02t09.flac:75873c094258d5d4d13ebdbce2a9504e
taxi2011-01-01d02t10.flac:fc41617825e3e405b6943b45b0eaa900
taxi2011-01-01d02t11.flac:8eaef21906711d9e37bfcc925d7b1375
taxi2011-01-01d02t12.flac:6e8eb4fc86f7d45e56f83a1605ed048a
taxi2011-01-01d02t13.flac:7bbfd2796c09d2a182e0a6b24a73f0e3
taxi2011-01-01d02t14.flac:cf948770901a3af5039f5b0c73eab047
taxi2011-01-01d02t15.flac:9a2b46493149e51aa1efd77c6c2133e7
taxi2011-01-01d02t16.flac:a75fb25a58ace21e356ebe8f3e898530

Shntool 

    length     expanded size    cdr  WAVE problems  fmt   ratio  filename
     4:02.22       42740588 B   ---   --   ---xx   flac  0.5218  taxi2011-01-01d01t01.flac
     4:01.47       42622988 B   ---   --   ---xx   flac  0.5198  taxi2011-01-01d01t02.flac
     5:33.74       58915292 B   ---   --   ---xx   flac  0.5501  taxi2011-01-01d01t03.flac
    16:16.47      172276988 B   ---   --   ---xx   flac  0.5310  taxi2011-01-01d01t04.flac
     7:09.24       75732092 B   ---   --   ---xx   flac  0.5340  taxi2011-01-01d01t05.flac
     6:15.29       66218252 B   ---   --   ---xx   flac  0.5149  taxi2011-01-01d01t06.flac
     5:49.03       61570700 B   ---   --   ---xx   flac  0.5468  taxi2011-01-01d01t07.flac
     0:46.31        8187356 B   ---   --   ---xx   flac  0.4989  taxi2011-01-01d01t08.flac
     5:24.13       57184220 B   ---   --   ---xx   flac  0.5446  taxi2011-01-01d01t09.flac
     0:29.64        5266172 B   ---   --   ---xx   flac  0.3883  taxi2011-01-01d02t01.flac
     5:00.44       53023532 B   ---   --   ---xx   flac  0.4971  taxi2011-01-01d02t02.flac
     3:42.66       39316076 B   ---   --   ---xx   flac  0.5346  taxi2011-01-01d02t03.flac
     5:48.29       61455452 B   ---   --   ---xx   flac  0.5370  taxi2011-01-01d02t04.flac
     7:58.35       84401564 B   ---   --   ---xx   flac  0.5224  taxi2011-01-01d02t05.flac
     7:26.66       78829676 B   ---   --   ---xx   flac  0.5382  taxi2011-01-01d02t06.flac
     2:10.20       22979084 B   ---   --   ---xx   flac  0.5753  taxi2011-01-01d02t07.flac
     2:30.42       26558828 B   ---   --   ---xx   flac  0.4890  taxi2011-01-01d02t08.flac
     9:39.23      102189740 B   ---   --   ---xx   flac  0.5330  taxi2011-01-01d02t09.flac
     9:07.43       96591980 B   ---   --   ---xx   flac  0.5053  taxi2011-01-01d02t10.flac
     2:31.01       26638796 B   ---   --   ---xx   flac  0.5292  taxi2011-01-01d02t11.flac
     3:56.44       41733932 B   ---   --   ---xx   flac  0.4738  taxi2011-01-01d02t12.flac
     5:27.16       57720476 B   ---   --   ---xx   flac  0.5250  taxi2011-01-01d02t13.flac
     0:51.56        9128156 B   ---   --   ---xx   flac  0.4007  taxi2011-01-01d02t14.flac
     5:37.58       59583260 B   ---   --   ---xx   flac  0.5735  taxi2011-01-01d02t15.flac
     6:11.24       65500892 B   ---   --   ---xx   flac  0.4755  taxi2011-01-01d02t16.flac
   133:49.21     1416366092 B                            0.5248  (25 files)










More information about the bittorrent mailing list