[bittorrent] gd79-01-08.87657.sbd.miller.sbeok.t-flac16

Automated Mailer noreply-bt.e at etree.org
Fri Apr 29 06:07:27 MDT 2011


Band:           Grateful Dead
Torrent Name:   gd79-01-08.87657.sbd.miller.sbeok.t-flac16
Uploaded by:    germain
DB Link:        http://db.etree.org/shn/87657
Details:        http://bt.etree.org/details.php?id=544481

Contact the seeder at http://db.etree.org/germain

If the link to this show does not work, it was probably removed for
being non-trade-friendly.

Description / text file:
-------------------------
This is a tagged version of shnid: 87657

Grateful Dead 
January 8, 1979
Madison Square Garden 
New York, NY
gd79-01-08.nak300-wagner.miller.87657.flac16

Recording Info:
Nakamichi 300/CP1 -> Cassette Master (Maxell UDXL-II/Sony TC-158)

Transfer Info:
Cassette Master (Nakamichi DR-1) -> Apogee MiniMe (24bit/48k) ->
Samplitude Professional v9.11 -> FLAC/16
(3 Discs Audio / 2 Discs FLAC)

All Transfers and Mastering By Charlie Miller
charliemiller87 at earthlink.net
October 12, 2007

Notes:
-- All disc changes are seamless
-- Master Cassette flips in Drums
-- Recorded By Robert Wagner
-- Rescheduled from December 1, 1978
-- One of my all time favorite 2nd sets
________________________________________________________________________________

--Set 1--
101-d1t01 - Mississippi Half-Step Uptown Toodeloo ->
102-d1t02 - Franklin's Tower
103-d1t03 - New Minglewood Blues
104-d1t04 - Candyman
105-d1t05 - Me And My Uncle ->
106-d1t06 - Big River
107-d1t07 - Friend of the Devil
108-d1t08 - It's All Over Now
109-d1t09 - Brown Eyed Women
110-d2t01 - Lazy Lightnin' ->
111-d2t02 - Supplication

--Set 2--
201-d2t03 - Scarlet Begonias ->
202-d2t04 - Fire on the Mountain
203-d2t05 - Samson & Delilah
204-d3t01 - Terrapin Station ->
205-d3t02 - Playing in the Band ->
206-d3t03 - Drums ->
207-d3t04 - The Other One ->
208-d3t05 - Wharf Rat ->
209-d3t06 - Good Lovin'

--Encore--
210-d3t07 - U.S. Blues
_________________________________________________________________________________

Tagging notes:
Show information is embedded within the header of each flac file. 
It will display on any player capable of directly playing flac 
files. If converted to wav during processing, all tags will be 
stripped, however audio data will remain unaffected. If you must 
transcode to a lossy format, do so directly Flac > Lossy.
Use ffp to validate audio integrity.
Md5 values will change if tagging is altered.
B. Proctor 6-16-08
________________________________________________________________________________


SHNTOOL OUTPUT:
    length     expanded size   cdr  WAVE problems filename
     9:30.12      100576268    ---   --   -----   gd79-01-08d1t01.wav
    12:30.49      132415292    ---   --   -----   gd79-01-08d1t02.wav
     7:00.13       74118620    ---   --   -----   gd79-01-08d1t03.wav
     8:19.32       88098908    ---   --   -----   gd79-01-08d1t04.wav
     2:55.33       30947660    ---   --   -----   gd79-01-08d1t05.wav
     7:34.29       80153852    ---   --   -----   gd79-01-08d1t06.wav
    12:46.07      135138908    ---   --   -----   gd79-01-08d1t07.wav
     9:46.53      103495100    ---   --   -----   gd79-01-08d1t08.wav
     6:56.10       73405964    ---   --   -----   gd79-01-08d1t09.wav
     3:33.25       37632044    ---   --   -----   gd79-01-08d2t01.wav
     8:00.67       84829628    ---   --   -----   gd79-01-08d2t02.wav
    11:25.01      120836396    ---   --   -----   gd79-01-08d2t03.wav
    11:10.59      118326812    ---   --   -----   gd79-01-08d2t04.wav
     7:33.29       79977452    ---   --   -----   gd79-01-08d2t05.wav
    12:15.53      129778700    ---   --   -----   gd79-01-08d3t01.wav
    13:16.14      140447372    ---   --   -----   gd79-01-08d3t02.wav
     7:59.30       84566204    ---   --   -----   gd79-01-08d3t03.wav
     7:56.57       84100508    ---   --   -----   gd79-01-08d3t04.wav
    11:00.62      116569868    ---   --   -----   gd79-01-08d3t05.wav
     6:48.65       72124124    ---   --   -----   gd79-01-08d3t06.wav
     5:54.62       62591468    ---   --   -----   gd79-01-08d3t07.wav
   184:15.12     1950131148 B                     (totals for 21 files)




More information about the bittorrent mailing list