[bittorrent] the chris robinson brotherhood - april 25, 2011 - akg c422>lunatec v2>ad2k+

Automated Mailer noreply-bt.e at etree.org
Wed Apr 27 07:57:45 MDT 2011


Band:           Chris Robinson
Torrent Name:   the chris robinson brotherhood - april 25, 2011 - akg c422>lunatec v2>ad2k+ 
Uploaded by:    macdaddys.info
DB Link:        
Details:        http://bt.etree.org/details.php?id=544439

Contact the seeder at http://db.etree.org/macdaddys.info

If the link to this show does not work, it was probably removed for
being non-trade-friendly.

Description / text file:
-------------------------
The Chris Robinson Brotherhood
The Echoplex (1154 Glendale Boulevard, Los Angeles, CA 90026)
Monday, April 25, 2011



AKG c422 > s42 > Grace Design Lunatec V2 > Sonic AD2K+ > Tascam HD-P2

Location	: ~5' left of center, ~20' back, ~8' superclamp (knob)/extension pole + offset arm/nanoclamp
Mic Config	: Blumlein
Record Format	: 24-bit, 96 kHz
Transfer	: CF card > USB 2.0 card reader > PC
Edit, Tracking	: normalize to 95%, fades, invert polarity (Samplitude)
Dither		: POW-r #3 (Samplitude)
Resample	: Ultra High 1 (Samplitude)
Final Format	: 16-bit, 44.1 kHz
Verify		: shntool.exe
Tagging		: Live Show Tagger (foobar2000)



01. - set one -
02. Tulsa Yesterday
03. Tumbleweed in Eden
04. Never Been to Spain
05. Little Lizzie Mae
06. The Dolphins
07. Star or Stone
08. Tomorrow Blues
09. Rosalee
10. - set two -
11. Bright Lights, Big City
12. If Your Wheel Don't Roll
13. Sorrows of a Blue-Eyed Liar
14. Eagles on the Highway
15. Sunday Sound
16. Star-Crossed Lonely Sailor
17. Vibration and Light Suite
18. Ride

19. Blue Suede Shoes



    length     expanded size    cdr  WAVE problems  fmt   ratio  filename
     0:37.46        6635036 B   ---   --   -----    wav  1.0000  crb2011-04-25c422_01.wav
     9:38.25      102018044 B   ---   --   -----    wav  1.0000  crb2011-04-25c422_02.wav
     7:21.41       77888876 B   ---   --   -----    wav  1.0000  crb2011-04-25c422_03.wav
     5:20.62       56593868 B   ---   --   -----    wav  1.0000  crb2011-04-25c422_04.wav
     8:05.33       85631660 B   ---   --   -----    wav  1.0000  crb2011-04-25c422_05.wav
     6:54.49       73144892 B   ---   --   -----    wav  1.0000  crb2011-04-25c422_06.wav
    10:13.26      108194396 B   ---   --   -----    wav  1.0000  crb2011-04-25c422_07.wav
     7:51.16       83122076 B   ---   --   -----    wav  1.0000  crb2011-04-25c422_08.wav
     8:55.21       94423436 B   ---   --   -----    wav  1.0000  crb2011-04-25c422_09.wav
     0:41.55        7361804 B   ---   --   -----    wav  1.0000  crb2011-04-25c422_10.wav
     6:25.26       67975196 B   ---   --   -----    wav  1.0000  crb2011-04-25c422_11.wav
     5:50.64       61890572 B   ---   --   -----    wav  1.0000  crb2011-04-25c422_12.wav
     7:59.22       84547388 B   ---   --   -----    wav  1.0000  crb2011-04-25c422_13.wav
    10:08.62      107397068 B   ---   --   -----    wav  1.0000  crb2011-04-25c422_14.wav
     8:48.42       93238028 B   ---   --   -----    wav  1.0000  crb2011-04-25c422_15.wav
    12:15.48      129766940 B   ---   --   -----    wav  1.0000  crb2011-04-25c422_16.wav
    10:37.27      112430348 B   ---   --   -----    wav  1.0000  crb2011-04-25c422_17.wav
    18:22.42      194491628 B   ---   --   -----    wav  1.0000  crb2011-04-25c422_18.wav
    11:02.60      116917964 B   ---   --   -----    wav  1.0000  crb2011-04-25c422_19.wav
   157:11.17     1663669220 B                            1.0000  (19 files)





More information about the bittorrent mailing list