[bittorrent] greyboy allstars - april 23, 2011 - akg c422>lunatec v2>ad2k+

Automated Mailer noreply-bt.e at etree.org
Sun Apr 24 09:09:32 MDT 2011


Band:           GreyBoy AllStars
Torrent Name:   greyboy allstars - april 23, 2011 - akg c422>lunatec v2>ad2k+
Uploaded by:    macdaddys.info
DB Link:        
Details:        http://bt.etree.org/details.php?id=544355

Contact the seeder at http://db.etree.org/macdaddys.info

If the link to this show does not work, it was probably removed for
being non-trade-friendly.

Description / text file:
-------------------------
Greyboy Allstars
The Mint (6010 West Pico Boulevard, Los Angeles, CA 90035)
Saturday, April 23, 2011



AKG c422 > s42 > Grace Design Lunatec V2 > Sonic AD2K+ > Tascam HD-P2

Location	: ~Center, ~11' back, ~8' clamp/extension pole
Mic Config	: Blumlein
Record Format	: 24-bit, 96 kHz
Transfer	: CF card > USB 2.0 card reader > PC
Edit, Tracking	: fades, invert polarity (Samplitude)
Dither		: POW-r #3 (Samplitude)
Resample	: Ultra High 1 (Samplitude)
Final Format	: 16-bit, 44.1 kHz
Verify		: shntool.exe
Tagging		: Live Show Tagger (foobar2000)





01. - set one -
02. 
03. 
04. 
05. 
06.
07. Feel My Grip
08.
09.
10. - set two -
11. 
12. Multiplier 
13.
14.
15.
16. 
17.
18. 
19. 
20.
21. 



Many thanks to DATPAT.



    length     expanded size    cdr  WAVE problems  fmt   ratio  filename
     0:26.25        4645244 B   ---   --   -----    wav  1.0000  gba2011-04-23c422_01.wav
     5:49.25       61622444 B   ---   --   -----    wav  1.0000  gba2011-04-23c422_02.wav
     6:54.30       73100204 B   ---   --   -----    wav  1.0000  gba2011-04-23c422_03.wav
     6:09.42       65190428 B   ---   --   -----    wav  1.0000  gba2011-04-23c422_04.wav
     3:29.71       37034636 B   ---   --   -----    wav  1.0000  gba2011-04-23c422_05.wav
     6:15.45       66255884 B   ---   --   -----    wav  1.0000  gba2011-04-23c422_06.wav
     5:15.13       55596620 B   ---   --   -----    wav  1.0000  gba2011-04-23c422_07.wav
     5:04.08       53644460 B   ---   --   -----    wav  1.0000  gba2011-04-23c422_08.wav
     5:16.18       55784780 B   ---   --   -----    wav  1.0000  gba2011-04-23c422_09.wav
     0:15.22        2697788 B   ---   --   -----    wav  1.0000  gba2011-04-23c422_10.wav
     5:42.26       60389996 B   ---   --   -----    wav  1.0000  gba2011-04-23c422_11.wav
     6:15.49       66265292 B   ---   --   -----    wav  1.0000  gba2011-04-23c422_12.wav
     4:13.26       44690396 B   ---   --   -----    wav  1.0000  gba2011-04-23c422_13.wav
     9:14.14       97758572 B   ---   --   -----    wav  1.0000  gba2011-04-23c422_14.wav
     7:58.29       84387452 B   ---   --   -----    wav  1.0000  gba2011-04-23c422_15.wav
     5:31.74       58562492 B   ---   --   -----    wav  1.0000  gba2011-04-23c422_16.wav
    15:05.07      159658508 B   ---   --   -----    wav  1.0000  gba2011-04-23c422_17.wav
     8:44.00       92433644 B   ---   --   -----    wav  1.0000  gba2011-04-23c422_18.wav
     6:45.29       71510252 B   ---   --   -----    wav  1.0000  gba2011-04-23c422_19.wav
     8:33.25       90552044 B   ---   --   -----    wav  1.0000  gba2011-04-23c422_20.wav
     8:59.24       95136092 B   ---   --   -----    wav  1.0000  gba2011-04-23c422_21.wav
   131:59.02     1396917228 B                            1.0000  (21 files)



More information about the bittorrent mailing list