[bittorrent] GRAB 07-22-06

Automated Mailer noreply-bt.e at etree.org
Sat Apr 23 11:36:11 MDT 2011


Band:           Trey Anastasio
Torrent Name:   GRAB 07-22-06
Uploaded by:    jmaneval
DB Link:        http://db.etree.org/shninfo_detail.php?shnid=77599
Details:        http://bt.etree.org/details.php?id=544320

Contact the seeder at http://db.etree.org/jmaneval

If the link to this show does not work, it was probably removed for
being non-trade-friendly.

Description / text file:
-------------------------
GRAB (Mike Gordon/Joe Russo/Trey Anastasio/Marco Beveneto)
July 22, 2006
Main Stage
10,000 Lakes Festival, Detroit Lakes, MN

Source: SP-C4 (omnis) > Nick's Silver XLR > mme > S/PDIF > mt24/48
Location: Left of Board, VIP Section, 8', ORTF
Transfer: Compact Flash > WaveLab > WAV > dBPowerAMP(16/44.1) > shntool > FLAC
Taped By: Joseph Lawson (joekiller dot com)

Disc 1/Set 1:

01. Goodbye Head
02. Drifting
03. Happy Birthday Marco
04. Mud City
05. Trouble
06. Suskind Hotel >
07. Dragonfly

Disc 2/Set 2:
01. Host Across The Potomac
02. Something For Rockets
03. Hap-Nappy
04. Sleep Again
05. Uncle Albert*

Disc 3/Set 2 cont.:
01. Wave The Ocean** (Tim O'Brien)
02. Wherever You Find It**
03. You've Got Me Floating**
04. Poor Heart**
05. Shine^
06. Who Are You&!
E7. Get Back

Notes:
*Trey on megaphone.
**Trey on acoustic, Mike on banjo.
^preceded by a birthday cake presentation to Marco
&with John Medeski (and Marco) on organ/keys
!Fireworks at end

Special Thanks to Bill Higgins and the 10,000 Lakes Festival.

Shntool Output:
    length     expanded size   cdr  WAVE problems filename
    16:22.71      173391836    ---   --   ---xx   GRAB2006-07-22d1t01.flac
     6:09.69       65253932    ---   --   ---xx   GRAB2006-07-22d1t02.flac
     1:38.62       17433068    ---   --   ---xx   GRAB2006-07-22d1t03.flac
    12:09.02      128600348    ---   --   ---xx   GRAB2006-07-22d1t04.flac
     3:56.09       41651612    ---   --   ---xx   GRAB2006-07-22d1t05.flac
    16:18.58      172655660    ---   --   ---xx   GRAB2006-07-22d1t06.flac
     5:52.20       62139884    ---   --   ---xx   GRAB2006-07-22d1t07.flac
     9:12.59       97511612    ---   --   ---xx   GRAB2006-07-22d2t01.flac
     5:26.36       57591116    ---   --   ---xx   GRAB2006-07-22d2t02.flac
     9:26.48       99955340    ---   --   ---xx   GRAB2006-07-22d2t03.flac
     6:49.06       72161756    ---   --   ---xx   GRAB2006-07-22d2t04.flac
    12:31.48      132589340    ---   --   ---xx   GRAB2006-07-22d2t05.flac
     3:18.53       35051900    ---   --   ---xx   GRAB2006-07-22d3t01.flac
     5:28.30       57929804    ---   --   ---xx   GRAB2006-07-22d3t02.flac
     5:33.32       58816508    ---   --   ---xx   GRAB2006-07-22d3t03.flac
     5:13.64       55363772    ---   --   ---xx   GRAB2006-07-22d3t04.flac
     8:19.41       88120076    ---   --   ---xx   GRAB2006-07-22d3t05.flac
    16:51.15      178375724    ---   --   ---xx   GRAB2006-07-22d3t06.flac
    11:53.51      125893196    ---   --   ---xx   GRAB2006-07-22d3t07.flac
   162:33.24     1720486484 B                     (totals for 19 files, 0.5429 overall compression ratio)



More information about the bittorrent mailing list