[bittorrent] Grateful Dead - 1976-06-22 Tower Theatre - Upper Darby, PA *Matrix*

Automated Mailer noreply-bt.e at etree.org
Wed Apr 20 11:40:21 MDT 2011


Band:           Grateful Dead
Torrent Name:   Grateful Dead - 1976-06-22 Tower Theatre - Upper Darby, PA *Matrix*
Uploaded by:    hseamons
DB Link:        http://db.etree.org/shn/112900
Details:        http://bt.etree.org/details.php?id=544245

Contact the seeder at http://db.etree.org/hseamons

If the link to this show does not work, it was probably removed for
being non-trade-friendly.

Description / text file:
-------------------------
Grateful Dead
Tower Theatre
Upper Darby, PA
June 22, 1976

Jerry Garcia - Lead Guitar, Vocals
Donna Jean Godchaux - Vocals
Keith Godchaux - Keyboards
Mickey Hart - Drums
Bill Kreutzmann - Drums
Phil Lesh - Electric Bass, Vocals
Bob Weir - Rhythm Guitar, Vocals



*Matrix*


----------------------------------------------------
SBD (shnid=112218):

Recording Info:
SBD -> Master Cassette -> Apogee Ensemble -> Peak -> AIFF

Transfer Info:
AIFF -> Adobe Audition v1.5 -> Samplitude Professional v10.1 -> FLAC
(3 Discs Audio / 2 Discs FLAC)

All Transfers and Mastering By Charlie Miller
charliemiller87 at earthlink.net
October 24, 2008

[Cuts]:
U.S. Blues (2:11 - 2:22)
The Music Never Stopped (4:06 - 4:19)
Cassidy (3:00 - 3:14)
Promised Land (1:32 - 1:58)
Samson And Delilah (4:45 - end of track)
Beer Barrel Polka (complete track)
Eyes Of The World (complete track)
Dancing In The Street (0:00 - 6:53)
One More Saturday Night (1:48 - 2:35)

Notes:
-- All disc changes are seamless
-- There was a lot of static which I cleaned as best as I could
-- Playing in The Band contains a Happiness Is Drumming Jam
-- Thanks to Digitalrbb for the supplying and digitizing the tapes
-- Thanks to Joe B. Jones for his help with the pitch correction

----------------------------------------------------
AUD (shnid=112789):

Recording Info:
Unknown Mics -> Master Cassette (Nakamichi 350)

Transfer Info:
Cassette Master (Nakamichi CR-7A) -> Apogee Ensemble -> Peak -> AIFF

Mastering Info:
AIFF -> Samplitude Professional v11.2 -> FLAC
(3 Discs Audio / 2 Discs FLAC)

Transferred By Digitalrbb
Mastered By Charlie Miller
charliemiller87 at earthlink.net
April 9, 2011

Patch Info:
AKG D1000 -> Master Cassette -> Reel -> FLAC (shnid=99093) supplies:
Tennessee Jed (2:58 - 6:45)
One More Saturday Night (3:36 - end of track)

Notes:
-- All disc changes are seamless
-- Show was recorded by a band crew member with mics placed at soundboard
-- Playing in The Band contains a Happiness Is Drumming Jam
-- Thanks to Digitalrbb for the tapes

---------------------------------------------------
Thank you to Charlie Miller & Digitalrbb for the SBD transfer,
to the Grateful Dead crew member for recording the show,
and to Charlie Miller & Digitalrbb for the AUD transfer.

Matrix by Hunter Seamons using Final Cut Pro (FLAC > AIFF > Soundtrack > Final Cut > AIFF CD tracking via Audacity > FLAC16 via xACT)
April 20, 2011


Set I
-----
d1t01 - Tuning
d1t02 - U.S. Blues
d1t03 - The Music Never Stopped
d1t04 - Crazy Fingers ->
d1t05 - Comes A Time
d1t06 - Big River
d1t07 - Tennessee Jed
d1t08 - Looks Like Rain
d1t09 - They Love Each Other
d2t01 - Cassidy
d2t02 - Ship Of Fools
d2t03 - Promised Land

Set II
-----
d2t04 - Tuning
d2t05 - Playing In The Band ->
d2t06 - Drums with Phil ->
d2t07 - The Wheel ->
d2t08 - Playing In The Band
d3t01 - Samson And Delilah
d3t02 - Beer Barrel Polka
d3t03 - Eyes Of The World ->
d3t04 - Dancing In The Street
d3t05 - Around And Around ->
d3t06 - Goin' Down The Road, Feeling Bad ->
d3t07 - One More Saturday Night



Notes:

1)  Lots of static was removed from the SBD using Soundtrack Pro. There remains some subtle static, pops, hiccups, and occasional weirdness.




    length     expanded size    cdr  WAVE problems  fmt   ratio  filename
     3:48.53       40343900 B   ---   --   ---xx  gd76-06-22d1t01.flac
     7:06.72       75315788 B   ---   --   ---xx  gd76-06-22d1t02.flac
     6:55.37       73293068 B   ---   --   ---xx  gd76-06-22d1t03.flac
    12:42.33      134494460 B   ---   --   ---xx  gd76-06-22d1t04.flac
     9:22.42       99235628 B   ---   --   ---xx  gd76-06-22d1t05.flac
     7:07.62       75468668 B   ---   --   ---xx  gd76-06-22d1t06.flac
    10:58.61      116214716 B   ---   --   ---xx  gd76-06-22d1t07.flac
     8:44.40       92527724 B   ---   --   ---xx  gd76-06-22d1t08.flac
     8:55.13       94404620 B   ---   --   ---xx  gd76-06-22d1t09.flac
     6:35.32       69753308 B   ---   --   ---xx  gd76-06-22d2t01.flac
     8:49.29       93383852 B   ---   --   ---xx  gd76-06-22d2t02.flac
     4:46.17       50490428 B   ---   --   ---xx  gd76-06-22d2t03.flac
     1:16.28       13472300 B   ---   --   ---xx  gd76-06-22d2t04.flac
    22:22.69      236891132 B   ---   --   ---xx  gd76-06-22d2t05.flac
     2:28.12       26135468 B   ---   --   ---xx  gd76-06-22d2t06.flac
     4:55.38       52127420 B   ---   --   ---xx  gd76-06-22d2t07.flac
     6:25.32       67989308 B   ---   --   ---xx  gd76-06-22d2t08.flac
     6:35.22       69729788 B   ---   --   ---xx  gd76-06-22d3t01.flac
     1:52.43       19857980 B   ---   --   ---xx  gd76-06-22d3t02.flac
    12:11.46      129056636 B   ---   --   ---xx  gd76-06-22d3t03.flac
    14:27.08      152957660 B   ---   --   ---xx  gd76-06-22d3t04.flac
     6:43.30       71159804 B   ---   --   ---xx  gd76-06-22d3t05.flac
     8:02.14       85057772 B   ---   --   ---xx  gd76-06-22d3t06.flac
     4:54.60       52002764 B   ---   --   ---xx  gd76-06-22d3t07.flac
   188:08.68     1991364192 B                            0.6295  (24 files)



More information about the bittorrent mailing list