[bittorrent] gd78-12-28.35159.sbd.tetseli.fix7847.sbeok.t-flac16

Automated Mailer noreply-bt.e at etree.org
Tue Apr 19 05:33:50 MDT 2011


Band:           Grateful Dead
Torrent Name:   gd78-12-28.35159.sbd.tetseli.fix7847.sbeok.t-flac16
Uploaded by:    germain
DB Link:        http://db.etree.org/shn/35159
Details:        http://bt.etree.org/details.php?id=544207

Contact the seeder at http://db.etree.org/germain

If the link to this show does not work, it was probably removed for
being non-trade-friendly.

Description / text file:
-------------------------
This is a tagged version of shnid: 35159

Grateful Dead
12/28/78
Golden Hall
Community Concourse
San Diego, CA
gd78-12-28.sbd.tetzeli-fix.sbeok.flac16


-------------------------------------------------------------------------------
Fix of shnid 7487

I pasted in a few seconds of tuning just before Sugaree from the AUD 
on archive (shnid 19506).  Although it and Me & My Uncle both come in 
right at the very beginning, the entire songs are there and neither 
can really be called cut.  I also eliminated a few seconds' gap 
between drums and space, making it seamless.  Fade tracks are included, 
discard for seamless playback.  All shns converted to flac, SBEs were 
fixed using shntool.

Bill Tetzeli (btet at adelphia.net)
9:08 PM 6/16/2006
-------------------------------------------------------------------------------
Master Soundboard Reel > Cassette > CDR

Cassette to CDR transfer by Dave Cohen 
via a LynxOne 24 bit A/D card > Wave Lab3

CD ReMastering by Scott Clugston
EAC'ed / SHN'ed by Scott Clugston
1/10/02
______________________________________________________________________________

--set 1--
101-d1t01 - Sugaree
102-d1t02 - Funiculi Funicula
103-d1t03 - Beat It on Down the Line
104-d1t04 - Dire Wolf
105-d1t05 - Looks Like Rain
106-d1t06 - Stagger Lee
107-d1t07 - Me & My Uncle ->
108-d1t08 - Big River
109-d1t09 - Candyman
110-d1t10 - New Minglewood Blues
111-d2t01 - Tennessee Jed
112-d1t12 - Lazy Lightning ->
113-d1t13 - Supplication

--Set 2--
201-d2t04 - Shakedown Street
202-d2t05 - Heart of Me
203-d2t06 - Estimated Prophet ->
204-d2t07 - Eyes of the World ->
205-d2t08 - Drums ->
xxx-d2t08fade (fade out)
xxx-d3t00fade (fade in)
206-d3t01 - Space ->
207-d3t02 - Truckin' ->
208-d3t03 - Wharf Rat ->
209-d3t04 - Sugar Magnolia
    
--Encore--
210-d3t05 - Johnyy B. Goode
______________________________________________________________________________

Tagging notes:
Show information is embedded within the header of each flac file. 
It will display on any player capable of directly playing flac 
files. If converted to wav during processing, all tags will be 
stripped, however audio data will remain unaffected. If you must 
transcode to a lossy format, do so directly Flac > Lossy.
Use ffp to validate audio integrity.
Md5 values will change if tagging is altered.
B. Proctor 3-21-09
______________________________________________________________________________


FLAC fingerprint:

gd78-12-28d1t01.flac:abab74d903936b301102a4d05e5f3dd9
gd78-12-28d1t02.flac:c4dde4be2eba44a600bebcfe20345587
gd78-12-28d1t03.flac:141a6dfaccb88d6a4c46bfb166072bec
gd78-12-28d1t04.flac:cc8025fe5342b87695f322e7e813c962
gd78-12-28d1t05.flac:c95d96e6a9fbcab59e20376fec9ea4e6
gd78-12-28d1t06.flac:fd98fa61e2396c1070f8ad5c2629dc6c
gd78-12-28d1t07.flac:7b39ca64efdc6ac39e3f081e80e08eb6
gd78-12-28d1t08.flac:12f3874b88966ea4c2a08f5a77f44b82
gd78-12-28d1t09.flac:6cc9109b0d669290a7b379cea5c8d8fc
gd78-12-28d1t10.flac:724041c764a665ed9b815d1ad08ff671
gd78-12-28d2t01.flac:e0c452eeaabc9c81c3800e0458fe5d15
gd78-12-28d2t02.flac:2050ba3e40d9b6ba9555adccee2e91bf
gd78-12-28d2t03.flac:468232dab11a4f4b2071c735b6bb8712
gd78-12-28d2t04.flac:852117df8756996bd4ed894ddaea975a
gd78-12-28d2t05.flac:b8e51cb8f86857aea84a06632fc9cb37
gd78-12-28d2t06.flac:7badfbd8a50b0c72190ce015dcdb10cb
gd78-12-28d2t07.flac:9d9c42c9afe779f7fe651ad8983d375f
gd78-12-28d2t08.flac:15eca0703a5f522e29c92475d5d0330a
gd78-12-28d2t08fade.flac:549ead9c6f45e57da4f42bc3c50a511e
gd78-12-28d3t00fade.flac:b0c2a26ffb011a8492dcc399347690e9
gd78-12-28d3t01.flac:b22b0a52aac92f2870ddd29f57de0b11
gd78-12-28d3t02.flac:abb6f432405333198ac46ac88faf4b12
gd78-12-28d3t03.flac:6bcce2de6a18feb36b378b3ac143cfbd
gd78-12-28d3t04.flac:67e633a0179f4391d4c5d16f06b2c1d8
gd78-12-28d3t05.flac:339e47885bb65018d97514af1f189e09

shntool output:

    length     expanded size   cdr  WAVE problems filename
    15:14.73      161401340    ---   --   ---xx   gd78-12-28d1t01.flac
     2:43.41       28849676    ---   --   ---xx   gd78-12-28d1t02.flac
     4:48.42       50902028    ---   --   ---xx   gd78-12-28d1t03.flac
     6:11.72       65613788    ---   --   ---xx   gd78-12-28d1t04.flac
     9:48.36      103807916    ---   --   ---xx   gd78-12-28d1t05.flac
     6:27.20       68313884    ---   --   ---xx   gd78-12-28d1t06.flac
     2:59.74       31749692    ---   --   ---xx   gd78-12-28d1t07.flac
     7:50.35       82990364    ---   --   ---xx   gd78-12-28d1t08.flac
     9:12.62       97518668    ---   --   ---xx   gd78-12-28d1t09.flac
     5:17.40       56012924    ---   --   ---xx   gd78-12-28d1t10.flac
    10:03.57      106503308    ---   --   ---xx   gd78-12-28d2t01.flac
     3:35.56       38057756    ---   --   ---xx   gd78-12-28d2t02.flac
     5:22.64       56951372    ---   --   ---xx   gd78-12-28d2t03.flac
    14:11.68      150276380    ---   --   ---xx   gd78-12-28d2t04.flac
     6:21.56       67340156    ---   --   ---xx   gd78-12-28d2t05.flac
    11:35.62      122743868    ---   --   ---xx   gd78-12-28d2t06.flac
     9:29.62      100517468    ---   --   ---xx   gd78-12-28d2t07.flac
     7:52.60       83401964    ---   --   ---xx   gd78-12-28d2t08.flac
     0:20.61        3671516    ---   --   ---xx   gd78-12-28d2t08fade.flac
     0:20.10        3551564    ---   --   ---xx   gd78-12-28d3t00fade.flac
     2:58.18       31441580    ---   --   ---xx   gd78-12-28d3t01.flac
     8:29.02       89792348    ---   --   ---xx   gd78-12-28d3t02.flac
    10:12.51      108076796    ---   --   ---xx   gd78-12-28d3t03.flac
     9:14.18       97767980    ---   --   ---xx   gd78-12-28d3t04.flac
     4:19.06       45701756    ---   --   ---xx   gd78-12-28d3t05.flac
   175:04.21     1852956092 B                     (totals for 25 files, 0.6072 overall compression ratio)



More information about the bittorrent mailing list