[bittorrent] Ween 2011-04-15 The 40 Watt Club, Athens Ga. - AKG c414b-ULS

Automated Mailer noreply-bt.e at etree.org
Mon Apr 18 19:01:53 MDT 2011


Band:           Ween
Torrent Name:   Ween 2011-04-15 The 40 Watt Club, Athens Ga. - AKG c414b-ULS
Uploaded by:    barren
DB Link:        
Details:        http://bt.etree.org/details.php?id=544192

Contact the seeder at http://db.etree.org/barren

If the link to this show does not work, it was probably removed for
being non-trade-friendly.

Description / text file:
-------------------------
Ween		
2011-04-15
The 40 Watt Club
Athens, Ga.

Source: AKG c414b (cardioid, rh of dfc, barely fob, 7')>V3 (24/96)>sd722
Transfer: firewire>wavelab 6.10 [iZotope Ozone 4 Crystal Resampler (dither & 
downsample)]>CDWav (splits)>FLACFrontend
taped and transferred by John Barren
A Team Dirty South Recording

One Set

01. intro/tuning
02. Transdermal Celebration
03. Don't Get Too Close
04. Take Me Away
05. Even If You Don't
06. With My Own Bare Hands	
07. Bananas & Blow
08. Ice Castles
09. Final Alarm
10. Did You See Me?
11. Your Party
12. Awesome Sound
13. Learnin' To Live
14. Gabrielle
15. Dr. Rock
16. Monique the Freak
17. Let's Dance*
18. Slow Down Boy
19. Johnny On The Spot
20. The Goin' Gets Tough From the Getgo
21. Hey There Fancypants
22. You Fucked Up
23. Wayne's Pet Youngin'
24. Fiesta
25. Baby Bitch>
26. Buckingham Green
27. crowd/tuning

Encore:
28. The HIV Song
29. Spinal Meningitis (Got Me Down)
30. Squelch the Weasel
31. Lucky Man> Lucky Jam
32. house music 

A Team Dirty South Recording


Flac Fingerprint
ween2011-04-15t01.flac:617033edf2dd82962830854fb2bb4da3
ween2011-04-15t02.flac:e6bb87b2aa022794da8fa9171f5ec7c0
ween2011-04-15t03.flac:6f66f1f8e45cf677db18534db951642e
ween2011-04-15t04.flac:15228306cb5adda20de8f7c481036b93
ween2011-04-15t05.flac:d4a6b3907f73dd25610263d5d3be96ec
ween2011-04-15t06.flac:4ea15cd879b7a624977cc3ae782d9a0f
ween2011-04-15t07.flac:9ef6572a28d786e78083673dcaeb2a1c
ween2011-04-15t08.flac:d8e1793e5c53b7e2a3558ee9ed381ed9
ween2011-04-15t09.flac:4d768b208c3323f5b65075e8d38ff3df
ween2011-04-15t10.flac:7350b80bda46d2fdfaf25b8c35005298
ween2011-04-15t11.flac:1cca78a9ffee48d49d89d122f9c08996
ween2011-04-15t12.flac:f5dd56eee3fecedbd97e23a81a9ccf83
ween2011-04-15t13.flac:fe8f7adf2beaae824489c177a879aaf5
ween2011-04-15t14.flac:776d3a6bcb67627302780284442a1f9d
ween2011-04-15t15.flac:dbf994db7fbb63e67d6375c30965b025
ween2011-04-15t16.flac:9d0de1bcbe88f0bfad5c7094b26a9182
ween2011-04-15t17.flac:01226dd0c947eff0603276b91c91cdbc
ween2011-04-15t18.flac:838766c8d5f974f3939bea6fbae7c475
ween2011-04-15t19.flac:19d123fdf93719c3a6b4bc650c5e6198
ween2011-04-15t20.flac:947b4ffcc0c7e66211815583593b4cfc
ween2011-04-15t21.flac:4d97fbca13d8f3af3908268dadac2cfd
ween2011-04-15t22.flac:62607d98098ae9f40e86c2f1032da785
ween2011-04-15t23.flac:e753854fac765b8b603c1ba44fdef3ce
ween2011-04-15t24.flac:0cb816de4ac62534049cd34c19447f46
ween2011-04-15t25.flac:77e09bb503d62c133acd1e5d0daa8ac3
ween2011-04-15t26.flac:046b2087352ecc217398eea3deb27f91
ween2011-04-15t27.flac:c4838bc6e01d391c81edcadc896c184f
ween2011-04-15t28.flac:e3086ed0a80ff67540fedd4be0afa487
ween2011-04-15t29.flac:68c8c5c1fb2e207824043fc429dacbca
ween2011-04-15t30.flac:414e08a5a4da99cd5363189740151dbf
ween2011-04-15t31.flac:bd5b7ffee0941c228e6890d8f3ea38c6
ween2011-04-15t32.flac:1ad868b2d3e772b2590433aed04b83e1

Shntool
    length     expanded size    cdr  WAVE problems  fmt   ratio  filename
     1:28.39       15614972 B   ---   --   ---xx   flac  0.4379  ween2011-04-15t01.flac
     6:07.35       64821164 B   ---   --   ---xx   flac  0.4903  ween2011-04-15t02.flac
     4:31.31       47877356 B   ---   --   ---xx   flac  0.4908  ween2011-04-15t03.flac
     3:07.20       33033884 B   ---   --   ---xx   flac  0.5162  ween2011-04-15t04.flac
     5:25.30       57400604 B   ---   --   ---xx   flac  0.4831  ween2011-04-15t05.flac
     3:20.40       35374124 B   ---   --   ---xx   flac  0.5217  ween2011-04-15t06.flac
     4:18.62       45657068 B   ---   --   ---xx   flac  0.4866  ween2011-04-15t07.flac
     2:33.05       27001004 B   ---   --   ---xx   flac  0.4485  ween2011-04-15t08.flac
     4:46.70       50615084 B   ---   --   ---xx   flac  0.5088  ween2011-04-15t09.flac
     8:03.44       85304732 B   ---   --   ---xx   flac  0.4530  ween2011-04-15t10.flac
     4:30.57       47762108 B   ---   --   ---xx   flac  0.4937  ween2011-04-15t11.flac
    11:25.37      120921068 B   ---   --   ---xx   flac  0.5096  ween2011-04-15t12.flac
     3:25.63       36310220 B   ---   --   ---xx   flac  0.4998  ween2011-04-15t13.flac
     3:45.72       39859388 B   ---   --   ---xx   flac  0.5141  ween2011-04-15t14.flac
     3:58.33       42060860 B   ---   --   ---xx   flac  0.5199  ween2011-04-15t15.flac
     7:20.08       77634860 B   ---   --   ---xx   flac  0.5267  ween2011-04-15t16.flac
     5:32.63       58713020 B   ---   --   ---xx   flac  0.5174  ween2011-04-15t17.flac
     4:17.27       45398348 B   ---   --   ---xx   flac  0.5002  ween2011-04-15t18.flac
     6:26.41       68186876 B   ---   --   ---xx   flac  0.5126  ween2011-04-15t19.flac
     3:24.58       36122060 B   ---   --   ---xx   flac  0.5050  ween2011-04-15t20.flac
     2:01.40       21438524 B   ---   --   ---xx   flac  0.5226  ween2011-04-15t21.flac
     2:25.19       25622732 B   ---   --   ---xx   flac  0.5419  ween2011-04-15t22.flac
     2:37.25       27753644 B   ---   --   ---xx   flac  0.4957  ween2011-04-15t23.flac
     4:14.72       44974988 B   ---   --   ---xx   flac  0.4911  ween2011-04-15t24.flac
     3:23.23       35863340 B   ---   --   ---xx   flac  0.4739  ween2011-04-15t25.flac
     4:54.53       51986300 B   ---   --   ---xx   flac  0.4977  ween2011-04-15t26.flac
     6:16.40       66420524 B   ---   --   ---xx   flac  0.4228  ween2011-04-15t27.flac
     1:45.10       18545564 B   ---   --   ---xx   flac  0.5434  ween2011-04-15t28.flac
     4:00.52       42458348 B   ---   --   ---xx   flac  0.5051  ween2011-04-15t29.flac
     3:30.63       37192220 B   ---   --   ---xx   flac  0.4197  ween2011-04-15t30.flac
    14:26.43      152863580 B   ---   --   ---xx   flac  0.4824  ween2011-04-15t31.flac
     0:27.34        4842812 B   ---   --   ---xx   flac  0.4145  ween2011-04-15t32.flac
   147:55.34     1565631376 B                            0.4929  (32 files)





More information about the bittorrent mailing list