[bittorrent] Big Gigantic Oak Mountain Amphitheatre Pelham, Alabama 4/16/2011 (Schoeps CCM4V'S FOB)

Automated Mailer noreply-bt.e at etree.org
Mon Apr 18 06:51:47 MDT 2011


Band:           Other
Torrent Name:   Big Gigantic Oak Mountain Amphitheatre Pelham, Alabama 4/16/2011 (Schoeps CCM4V'S FOB)
Uploaded by:    zmanatl
DB Link:        
Details:        http://bt.etree.org/details.php?id=544173

Contact the seeder at http://db.etree.org/zmanatl

If the link to this show does not work, it was probably removed for
being non-trade-friendly.

Description / text file:
-------------------------
Big Gigantic
Oak Mountain Amphitheatre
Pelham, Alabama
4/16/2011

Source: Schoeps CCM4V'S(din)>Lunatec V2>Benchmark AD2K>
Sound Devices 722 (24/48)
FOB/DFC/KFC/ZFC/AARP Section 102, Row M, Between Seats 13 & 14  , 7' High
DSP: Sound Devices 722>Sound Forge 9.0>CD Wave>flac(16)
Recorded By: Z-Man
Seeded By: Z-Man

Disc I 

01 ? >
02 ? >
03 ?
04 Light Of Day
05 ?
06 ?
07 Black And Yellow
08 That's What I Need
09 ?
10 ?
11 

Flac Fingerprint 

biggigantic2011-04-16d01t01.flac:7efdd46d08b834ff17295b74675f70aa
biggigantic2011-04-16d01t02.flac:f4ae2603480ed61b555c2596053d8936
biggigantic2011-04-16d01t03.flac:babf7a8f282a173743278586b45caa38
biggigantic2011-04-16d01t04.flac:454c352ae74e83e8d921b03919cf1ceb
biggigantic2011-04-16d01t05.flac:0ff32285a14d2361242a3b36e40e9f8e
biggigantic2011-04-16d01t06.flac:636600fd6d02fad84f2c13caebcb2662
biggigantic2011-04-16d01t07.flac:dd3f7ceb6240ae564c4899ff99270c76
biggigantic2011-04-16d01t08.flac:4978ecf8bb483a7142c3409de3c757b3
biggigantic2011-04-16d01t09.flac:ff445ec666e6061586ee810c2dbf50f1
biggigantic2011-04-16d01t10.flac:8a2921983c147b935f2ed9f8dd364bf2
biggigantic2011-04-16d01t11.flac:c165689a8b11fa30d06fb0300d84a47e

Shntool 

    length     expanded size    cdr  WAVE problems  fmt   ratio  filename
     1:55.49       20401292 B   ---   --   ---xx   flac  0.4040  biggigantic2011-04-16d01t01.flac
     4:47.41       50723276 B   ---   --   ---xx   flac  0.5541  biggigantic2011-04-16d01t02.flac
     9:11.58       97332860 B   ---   --   ---xx   flac  0.5615  biggigantic2011-04-16d01t03.flac
     5:22.30       56871404 B   ---   --   ---xx   flac  0.5194  biggigantic2011-04-16d01t04.flac
     2:34.43       27266780 B   ---   --   ---xx   flac  0.5633  biggigantic2011-04-16d01t05.flac
     5:16.28       55808300 B   ---   --   ---xx   flac  0.5412  biggigantic2011-04-16d01t06.flac
     8:18.07       87863708 B   ---   --   ---xx   flac  0.5712  biggigantic2011-04-16d01t07.flac
     4:09.46       44031836 B   ---   --   ---xx   flac  0.5451  biggigantic2011-04-16d01t08.flac
     5:36.47       59380988 B   ---   --   ---xx   flac  0.5587  biggigantic2011-04-16d01t09.flac
     3:56.63       41778620 B   ---   --   ---xx   flac  0.5497  biggigantic2011-04-16d01t10.flac
     7:03.40       74711324 B   ---   --   ---xx   flac  0.5653  biggigantic2011-04-16d01t11.flac
    58:13.02      616170388 B                            0.5496  (11 files)

 





More information about the bittorrent mailing list