[bittorrent] Greensky Bluegrass 420 Festival Candler Park Atlanta, Georgia 4/17/2011 (Schoeps CCM4V'S)

Automated Mailer noreply-bt.e at etree.org
Sun Apr 17 22:13:12 MDT 2011


Band:           Other
Torrent Name:   Greensky Bluegrass 420 Festival Candler Park Atlanta, Georgia 4/17/2011 (Schoeps CCM4V'S)
Uploaded by:    zmanatl
DB Link:        
Details:        http://bt.etree.org/details.php?id=544165

Contact the seeder at http://db.etree.org/zmanatl

If the link to this show does not work, it was probably removed for
being non-trade-friendly.

Description / text file:
-------------------------
Greensky Bluegrass
420 Festival
Candler Park
Atlanta, Georgia
4/17/2011

Source: Schoeps CCM4V'S(din)>Lunatec V2>Benchmark AD2K>
Sound Devices 722 (24/48)
FOB/DFC/KFC/ZFC/AARP 39' From Stage, 7' High
DSP: Sound Devices 722>Sound Forge 9.0>CD Wave>flac(16)
Recorded By: Z-Man
Seeded By: Z-Man

Disc I 

01 Intro By Tommy Of 99X
02 Sweetwater Sea
03 Hit Parade Of Love
04 200 Miles From Montana
05 All Four
06 Dancin' In The Dark
07 Anders Banter
08 Last Winter In The Copper Country
09 ?
10 Can't Stop Now 

Disc II 

01 Band Introductions
02 ?
03 Can't Make Time 
04 Light Up Or Leave Me Alone
05 Lose My Way
06 Anders Banter
07 Just To Lie >
08 King Of The Hill
09 Bringin' In The Georgia Mail

Flac Fingerprint 

gsbg2011-04-17d01t01.flac:0c08739d4d2e8c05a9d659644581fe69
gsbg2011-04-17d01t02.flac:d86ba34bbd0332e20ab7d0acfd4adf8c
gsbg2011-04-17d01t03.flac:5bd55146d49329d4e3a77fdb8d9b9841
gsbg2011-04-17d01t04.flac:ba0ef4b1682a0d515510950b2a9a1c35
gsbg2011-04-17d01t05.flac:a8edfff833a48121ed73bebfb937268d
gsbg2011-04-17d01t06.flac:38c4b6994e82322271a8685cb6a029ea
gsbg2011-04-17d01t07.flac:7c871fa63b085bbbde9cb2474e14a208
gsbg2011-04-17d01t08.flac:257db9f814d7b64324942edc3d1296ba
gsbg2011-04-17d01t09.flac:853a85a82cba4f661a5f8cdbca7ee27e
gsbg2011-04-17d01t10.flac:3f74c4088a27eff54fc8c10951c276d3
gsbg2011-04-17d02t01.flac:f6884189768b8545c22febea8a299096
gsbg2011-04-17d02t02.flac:544b370b4b78305c9d2e2faa214a80a6
gsbg2011-04-17d02t03.flac:3704f9d6ff67979bd07df859b80845d4
gsbg2011-04-17d02t04.flac:eac653415329d760cee7757a86f950fa
gsbg2011-04-17d02t05.flac:94df8a6a26a0a8b6f3134290653f68e7
gsbg2011-04-17d02t06.flac:2d38bad25329cc98a22ce675fe752485
gsbg2011-04-17d02t07.flac:b11d64caa46bca637775ada8c010866d
gsbg2011-04-17d02t08.flac:8c4e89128691569d42cac99d9110d173
gsbg2011-04-17d02t09.flac:fe80114a1c618fa75d84dbeb4ca63f9b

Shntool 

    length     expanded size    cdr  WAVE problems  fmt   ratio  filename
     1:19.43       14036780 B   ---   --   ---xx   flac  0.2834  gsbg2011-04-17d01t01.flac
     3:52.26       40985996 B   ---   --   ---xx   flac  0.4195  gsbg2011-04-17d01t02.flac
     3:45.41       39786476 B   ---   --   ---xx   flac  0.4271  gsbg2011-04-17d01t03.flac
     5:13.26       55274396 B   ---   --   ---xx   flac  0.4267  gsbg2011-04-17d01t04.flac
    15:34.56      164889356 B   ---   --   ---xx   flac  0.4408  gsbg2011-04-17d01t05.flac
     5:18.41       56191676 B   ---   --   ---xx   flac  0.4482  gsbg2011-04-17d01t06.flac
     1:36.43       17035580 B   ---   --   ---xx   flac  0.3427  gsbg2011-04-17d01t07.flac
     6:56.66       73537676 B   ---   --   ---xx   flac  0.3951  gsbg2011-04-17d01t08.flac
     4:31.32       47879708 B   ---   --   ---xx   flac  0.4234  gsbg2011-04-17d01t09.flac
     5:06.33       54056060 B   ---   --   ---xx   flac  0.4847  gsbg2011-04-17d01t10.flac
     2:32.40       26906924 B   ---   --   ---xx   flac  0.3277  gsbg2011-04-17d02t01.flac
     5:43.03       60512300 B   ---   --   ---xx   flac  0.4267  gsbg2011-04-17d02t02.flac
     4:52.06       51522956 B   ---   --   ---xx   flac  0.4173  gsbg2011-04-17d02t03.flac
     6:17.41       66599276 B   ---   --   ---xx   flac  0.4519  gsbg2011-04-17d02t04.flac
     9:37.25      101841644 B   ---   --   ---xx   flac  0.4196  gsbg2011-04-17d02t05.flac
     0:55.49        9817292 B   ---   --   ---xx   flac  0.3709  gsbg2011-04-17d02t06.flac
     2:57.51       31342796 B   ---   --   ---xx   flac  0.4541  gsbg2011-04-17d02t07.flac
    14:50.10      157019564 B   ---   --   ---xx   flac  0.4380  gsbg2011-04-17d02t08.flac
     3:48.17       40259228 B   ---   --   ---xx   flac  0.4445  gsbg2011-04-17d02t09.flac
   104:49.49     1109495684 B                            0.4277  (19 files)





More information about the bittorrent mailing list