[bittorrent] Widespread Panic Oak Mountain Amphitheatre Pelham, Alabama 4/16/2011 (Schoeps CCM4V'S FOB)

Automated Mailer noreply-bt.e at etree.org
Sun Apr 17 04:17:49 MDT 2011


Band:           Widespread Panic
Torrent Name:   Widespread Panic Oak Mountain Amphitheatre Pelham, Alabama 4/16/2011 (Schoeps CCM4V'S FOB)
Uploaded by:    zmanatl
DB Link:        
Details:        http://bt.etree.org/details.php?id=544129

Contact the seeder at http://db.etree.org/zmanatl

If the link to this show does not work, it was probably removed for
being non-trade-friendly.

Description / text file:
-------------------------
Widespread Panic
Oak Mountain Amphitheatre
Pelham, Alabama
4/16/2011

Source: Schoeps CCM4V'S(din)>Lunatec V2>Benchmark AD2K>
Sound Devices 722 (24/48)
FOB/DFC/KFC/ZFC/AARP Section 102, Row M, Between Seats 13 & 14, 7' High
DSP: Sound Devices 722>Sound Forge 9.0>CD Wave>flac(16)
Recorded By: Z-Man
Seeded By: Z-Man

Disc I 1st Set

01 Greeting/Tuning
02 Chilly Water >
03 Drum Solo >
04 Impossible >
05 Contentment Blues >
06 B Of D >
07 Chily Water
08 Down On The Farm
09 Under The Radar Jam >
10 Shut Up And Drive >
11 Protein Drink >
12 Sewing Machine 

Disc II 2nd Set

01 Tuning
02 All Time Low >
03 Jam >
04 Blue Indian 
05 That Don't Make It Junk
06 Good People >
07 Dark Bar >
08 Good People
09 Ain't Life Grand >
10 Jam >
11 New Speedway Boogie 

Disc III 2nd Set Con't 

01 Jack
02 Red Hot Mama >
03 Tie Your Shoes >
04 Red Hot Mama >
05 Henry Parsons Died
Encore:
06 JB Bantor
07 Pilgrims >
08 Conrad The Caterpillar

Flac Fingerprint 

wsp2011-04-16d01t01.flac:96ce0ad894ee53943cf414f34c338d64
wsp2011-04-16d01t02.flac:31e591199633f41c0d58e1d0dc875b2f
wsp2011-04-16d01t03.flac:d0313a656f75ed9149978219d391822e
wsp2011-04-16d01t04.flac:32594184d29322f0c40f403701221db3
wsp2011-04-16d01t05.flac:45d3f95a103979a3cae8c854bc8e054b
wsp2011-04-16d01t06.flac:344fb651f8061eff0cba48077448dff5
wsp2011-04-16d01t07.flac:b386a09a07dc2f91ef9b43203dfa748d
wsp2011-04-16d01t08.flac:d51f15eca6c522947025e2eb2d51b5d9
wsp2011-04-16d01t09.flac:4d9dc114be6a008a0c7e964d70c32569
wsp2011-04-16d01t10.flac:85982549fdf7ecb20cd6d4a1ad4ac77a
wsp2011-04-16d01t11.flac:01722ccd62b11aca432e7cc820908871
wsp2011-04-16d01t12.flac:5f3d020990a49bf2ecebdaac9e0bd153
wsp2011-04-16d02t01.flac:06939af2e6786476fb40e6b7b6cb1b92
wsp2011-04-16d02t02.flac:12a8b9770bc8f46cbf22d65fddf9a10c
wsp2011-04-16d02t03.flac:727c275ea45ed7f4c3dbed7154723be2
wsp2011-04-16d02t04.flac:c776247358cf185555abef3e2bc43d2a
wsp2011-04-16d02t05.flac:86b34e622fc1c3627e8fb917c907391f
wsp2011-04-16d02t06.flac:7425b5cc38cc9119cb7299ba915c6283
wsp2011-04-16d02t07.flac:1da44acefc44e7e16f6cd6faee5e50ad
wsp2011-04-16d02t08.flac:de78b90e43497454a122ab6d449ce878
wsp2011-04-16d02t09.flac:d0b1f522e41a991c17bdfe1f37fff664
wsp2011-04-16d02t10.flac:09667ec8f70cd2d2df7011a7b6a7f8b5
wsp2011-04-16d02t11.flac:0fb68f476301dc385fbd7ac1978e475d
wsp2011-04-16d03t01.flac:f9c3c52504ffb08f4e83dddefcc84374
wsp2011-04-16d03t02.flac:168479505157e63de627fbae5b3cfe95
wsp2011-04-16d03t03.flac:87a0d2fbbbf15c05ee806d9157ef3500
wsp2011-04-16d03t04.flac:bc4b0bb6658fb3578e770d31de4b978a
wsp2011-04-16d03t05.flac:d91a96f07b991dca9c50ada3a85a1d01
wsp2011-04-16d03t06.flac:f000075c69da5eb8e18ee85e70777117
wsp2011-04-16d03t07.flac:ad7b3d8e71d1ec95b558e201dfe5ee97
wsp2011-04-16d03t08.flac:5ee995c8b277d890940129a0b64a69af

Shntool 

    length     expanded size    cdr  WAVE problems  fmt   ratio  filename
     0:35.71        6341036 B   ---   --   ---xx   flac  0.3453  wsp2011-04-16d01t01.flac
     4:16.66       45313676 B   ---   --   ---xx   flac  0.5091  wsp2011-04-16d01t02.flac
     1:25.43       15095180 B   ---   --   ---xx   flac  0.4850  wsp2011-04-16d01t03.flac
     5:05.02       53806748 B   ---   --   ---xx   flac  0.4969  wsp2011-04-16d01t04.flac
     4:57.35       52473164 B   ---   --   ---xx   flac  0.4845  wsp2011-04-16d01t05.flac
     5:49.41       61660076 B   ---   --   ---xx   flac  0.4912  wsp2011-04-16d01t06.flac
     4:39.69       49377932 B   ---   --   ---xx   flac  0.4830  wsp2011-04-16d01t07.flac
     4:24.69       46731932 B   ---   --   ---xx   flac  0.4725  wsp2011-04-16d01t08.flac
     5:14.04       55399052 B   ---   --   ---xx   flac  0.4249  wsp2011-04-16d01t09.flac
     8:02.48       85137740 B   ---   --   ---xx   flac  0.4788  wsp2011-04-16d01t10.flac
     5:15.28       55631900 B   ---   --   ---xx   flac  0.4801  wsp2011-04-16d01t11.flac
     6:31.27       69035948 B   ---   --   ---xx   flac  0.5064  wsp2011-04-16d01t12.flac
     0:32.73        5816540 B   ---   --   ---xx   flac  0.3138  wsp2011-04-16d02t01.flac
     5:45.31       60930956 B   ---   --   ---xx   flac  0.5146  wsp2011-04-16d02t02.flac
     3:33.37       37660268 B   ---   --   ---xx   flac  0.4574  wsp2011-04-16d02t03.flac
     6:23.17       67601228 B   ---   --   ---xx   flac  0.4147  wsp2011-04-16d02t04.flac
     6:53.42       72952028 B   ---   --   ---xx   flac  0.4012  wsp2011-04-16d02t05.flac
     2:32.59       26951612 B   ---   --   ---xx   flac  0.5170  wsp2011-04-16d02t06.flac
     1:47.30       18945404 B   ---   --   ---xx   flac  0.4400  wsp2011-04-16d02t07.flac
     3:54.18       41319980 B   ---   --   ---xx   flac  0.4900  wsp2011-04-16d02t08.flac
     6:03.09       64054412 B   ---   --   ---xx   flac  0.4954  wsp2011-04-16d02t09.flac
     7:45.22       82077788 B   ---   --   ---xx   flac  0.4466  wsp2011-04-16d02t10.flac
     7:37.29       80683052 B   ---   --   ---xx   flac  0.4460  wsp2011-04-16d02t11.flac
     7:11.28       76094300 B   ---   --   ---xx   flac  0.4561  wsp2011-04-16d03t01.flac
     6:30.30       68866604 B   ---   --   ---xx   flac  0.5260  wsp2011-04-16d03t02.flac
    12:15.10      129677564 B   ---   --   ---xx   flac  0.4999  wsp2011-04-16d03t03.flac
     2:21.17       24912428 B   ---   --   ---xx   flac  0.5235  wsp2011-04-16d03t04.flac
     7:43.67       81830828 B   ---   --   ---xx   flac  0.5142  wsp2011-04-16d03t05.flac
     0:26.72        4755788 B   ---   --   ---xx   flac  0.3307  wsp2011-04-16d03t06.flac
     8:12.59       86927612 B   ---   --   ---xx   flac  0.4612  wsp2011-04-16d03t07.flac
    10:05.43      106823180 B   ---   --   ---xx   flac  0.4911  wsp2011-04-16d03t08.flac
   163:54.71     1734885956 B                            0.4764  (31 files)



 



More information about the bittorrent mailing list