[bittorrent] CHARLIE HUNTER & ERIC KALB.:-:. The Stone Church- Newmarket NH 2011-04-15.460ck1.flac16 *ON STAGE ** with samples**

Automated Mailer noreply-bt.e at etree.org
Sat Apr 16 20:41:18 MDT 2011


Band:           Charlie Hunter
Torrent Name:   CHARLIE HUNTER & ERIC KALB.:-:. The Stone Church- Newmarket NH 2011-04-15.460ck1.flac16  *ON STAGE ** with samples**
Uploaded by:    newplanet7
DB Link:        
Details:        http://bt.etree.org/details.php?id=544124

Contact the seeder at http://db.etree.org/newplanet7

If the link to this show does not work, it was probably removed for
being non-trade-friendly.

Description / text file:
-------------------------
Charlie Hunter & Eric Kalb
April 15, 2011
The Stone Church
Newmarket, NH


SOURCE:
AKG CK1~> a60m~> c460b~> Silver T's~> Busman Mod PMD660


LOCATION/CONFIGURATION:
ON STAGE @ 2.5ft HIGH
Cards Spaced 10" 
Bodies Angled 70*


EDITING:
-Soundforge 8 (Pencil Tool, Peak Normalize)
-CDWAVE (Tracking)
-Traders Little Helper (SHNTOOL_len, SBE Check, FLAC lvl 8 )



RECORDED/TRANSFERRED/SEEDED BY:
Todd Turmel (newplanet 7 at CONcast dot net)

THE PLAYERS:
Charlie Hunter- 7 String 
Eric Kalb- Drums


SET ONE/DISC ONE:
01) 
02)
03)
04)
05)
06)
07)
08)
09)

SET TWO/DISC TWO:
01)
02)
03)
04)
05)
06)
07)
08)
09)
10)
11)

    length     expanded size    cdr  WAVE problems  fmt   ratio  filename
     7:48.54       82682252 B   ---   --   -----    wav  1.0000  ch2011-04-15d1t01.wav
     3:25.23       36216140 B   ---   --   -----    wav  1.0000  ch2011-04-15d1t02.wav
     4:22.45       46322684 B   ---   --   -----    wav  1.0000  ch2011-04-15d1t03.wav
     8:34.30       90740204 B   ---   --   -----    wav  1.0000  ch2011-04-15d1t04.wav
     6:00.20       63551084 B   ---   --   -----    wav  1.0000  ch2011-04-15d1t05.wav
    10:04.27      106609148 B   ---   --   -----    wav  1.0000  ch2011-04-15d1t06.wav
     6:05.11       64411916 B   ---   --   -----    wav  1.0000  ch2011-04-15d1t07.wav
     7:47.61       82522316 B   ---   --   -----    wav  1.0000  ch2011-04-15d1t08.wav
     9:21.19       99005132 B   ---   --   -----    wav  1.0000  ch2011-04-15d1t09.wav
     0:41.02        7237148 B   ---   --   -----    wav  1.0000  ch2011-04-15d2t01.wav
    12:51.40      136098524 B   ---   --   -----    wav  1.0000  ch2011-04-15d2t02.wav
     5:22.40       56894924 B   ---   --   -----    wav  1.0000  ch2011-04-15d2t03.wav
     5:44.23       60735740 B   ---   --   -----    wav  1.0000  ch2011-04-15d2t04.wav
     6:50.17       72364028 B   ---   --   -----    wav  1.0000  ch2011-04-15d2t05.wav
     5:10.28       54749900 B   ---   --   -----    wav  1.0000  ch2011-04-15d2t06.wav
     5:33.61       58884716 B   ---   --   -----    wav  1.0000  ch2011-04-15d2t07.wav
    11:45.09      124383212 B   ---   --   -----    wav  1.0000  ch2011-04-15d2t08.wav
     6:20.25       67090844 B   ---   --   -----    wav  1.0000  ch2011-04-15d2t09.wav
     1:11.51       12644396 B   ---   --   -----    wav  1.0000  ch2011-04-15d2t10.wav
     6:08.07       64931708 B   ---   --   -----    wav  1.0000  ch2011-04-15d2t11.wav
   131:08.68     1388076016 B                            1.0000  (20 files)




More information about the bittorrent mailing list