[bittorrent] The Steepwater Band (acoustic), "Record Store Day", Reggie's Record Breakers, Chicago, IL, 2011-04-16 (skm140) **24/48**

Automated Mailer noreply-bt.e at etree.org
Sat Apr 16 16:35:35 MDT 2011


Band:           Other
Torrent Name:   The Steepwater Band (acoustic), "Record Store Day", Reggie's Record Breakers, Chicago, IL, 2011-04-16 (skm140) **24/48**
Uploaded by:    taperj
DB Link:        
Details:        http://bt.etree.org/details.php?id=544117

Contact the seeder at http://db.etree.org/taperj

If the link to this show does not work, it was probably removed for
being non-trade-friendly.

Description / text file:
-------------------------
The Steepwater Band
2011-04-16
Reggie's Record Breakers
"Record Store Day"
Chicago, IL

Source: Neumann skm140(about 7' in front of the band, ~ORTF/~4.5' High) > Sound Devices Mixpre > Olympus LS-10(24/48)
Transfer: Olympus LS-10(24/48) > CDWave(Tracking) > FLAC(24/48/Level 8)

Recorded By: John Fairbairn

******_24Bit_******

One Set (acoustic)
==================
1. Roadblock
2. All The Way To Nowhere
3. Indiana Line
4. Dance Me A Number For Free
5. Healer

******_24Bit_******

Notes: Full acoustic set was in a record store so it was a bit of an odd setup 
to run mics, after the 1st song hearing how the room sounded I moved the stand 
back a few inches and did again after song 2 and 3. I believe after song one I 
began to hit the sweet spot if there was one. Big thanks also goes out to the 
employees at Reggies Record Breakers for being cool with recording and accomodating 
us. Thanks as always to TSB for a great set and for allowing recording.

===============
http://steepwater.com
===============

    length     expanded size    cdr  WAVE problems  fmt   ratio  filename
     4:36.627      79668524 B   cxx   --   ---xx   flac  0.6106  tsb2011-04-16s1t01.flac
     5:34.800      96422444 B   cxx   --   ---xx   flac  0.6446  tsb2011-04-16s1t02.flac
     5:26.160      93934124 B   cxx   --   ---xx   flac  0.7048  tsb2011-04-16s1t03.flac
     4:41.547      81085484 B   cxx   --   ---xx   flac  0.6446  tsb2011-04-16s1t04.flac
     4:51.688      84006188 B   cxx   --   ---xx   flac  0.7028  tsb2011-04-16s1t05.flac
    25:10.821     435116764 B                            0.6626  (5 files)



More information about the bittorrent mailing list