[bittorrent] The Steepwater Band (acoustic), Reggie's Record Breakers, "Record Store Day", Chicago, IL, 2011-04-16 (skm140)

Automated Mailer noreply-bt.e at etree.org
Sat Apr 16 15:12:30 MDT 2011


Band:           Other
Torrent Name:   The Steepwater Band (acoustic), Reggie's Record Breakers, "Record Store Day", Chicago, IL, 2011-04-16 (skm140)
Uploaded by:    taperj
DB Link:        
Details:        http://bt.etree.org/details.php?id=544116

Contact the seeder at http://db.etree.org/taperj

If the link to this show does not work, it was probably removed for
being non-trade-friendly.

Description / text file:
-------------------------
The Steepwater Band
2011-04-16
Reggie's Record Breakers
"Record Store Day"
Chicago, IL

Source: Neumann skm140(about 7' in front of the band, ~ORTF/~4.5' High) > Sound Devices Mixpre > Olympus LS-10(24/48)
Transfer: Olympus LS-10(24/48) > 


Recorded By: John Fairbairn

One Set (acoustic)
==================
1. Roadblock
2. All The Way To Nowhere
3. Indiana Line
4. Dance Me A Number For Free
5. Healer

Notes: Full acoustic set was in a record store so it was a bit of an odd setup 
to run mics, after the 1st song hearing how the room sounded I moved the stand 
back a few inches and did again after song 2 and 3. I believe after song one I 
began to hit the sweet spot if there was one. Big thanks also goes out to the 
employees at Reggies Record Breakers for being cool with recording and accomodating 
us. Thanks as always to TSB for a great set and for allowing recording.

===============
http://steepwater.com
===============

    length     expanded size    cdr  WAVE problems  fmt   ratio  filename
     4:36.47       48796988 B   ---   --   ---xx   flac  0.4251  tsb2011-04-16s1t01.flac
     5:34.60       59058764 B   ---   --   ---xx   flac  0.4774  tsb2011-04-16s1t02.flac
     5:26.12       57534668 B   ---   --   ---xx   flac  0.5611  tsb2011-04-16s1t03.flac
     4:41.41       49664876 B   ---   --   ---xx   flac  0.4716  tsb2011-04-16s1t04.flac
     4:51.52       51453812 B   -b-   --   ---xx   flac  0.5629  tsb2011-04-16s1t05.flac
    25:10.62      266509108 B                            0.5013  (5 files)




More information about the bittorrent mailing list