[bittorrent] gd78-12-19.102429.sbd-set1.miller.t-flac16

Automated Mailer noreply-bt.e at etree.org
Sat Apr 16 12:44:11 MDT 2011


Band:           Grateful Dead
Torrent Name:   gd78-12-19.102429.sbd-set1.miller.t-flac16
Uploaded by:    germain
DB Link:        http://db.etree.org/shn/102429
Details:        http://bt.etree.org/details.php?id=544109

Contact the seeder at http://db.etree.org/germain

If the link to this show does not work, it was probably removed for
being non-trade-friendly.

Description / text file:
-------------------------
This is a tagged version of shnid: 102429

Grateful Dead  
December 19, 1978
Memorial Coliseum  
Mississippi State Fairgrounds
Jackson, MS

**Set One Soundboard**

Recording Info:
SBD -> Cassette Master (Sony D5) -> Cassette (Sony D5)

Transfer Info:
Cassette (Nakamichi DR-1) -> Sound Devices 744T (24bit/96k) ->
Adobe Audition v1.5 -> Samplitude Professional v10.21 -> FLAC/16
(2 Discs Audio / 1 Disc FLAC)

All Mastering By Charlie Miller
charliemiller87 at earthlink.net
November 8, 2009

Notes:
-- Disc change is seamless
_________________________________________________________________________

--Set 1--
101-d1t01 - //Mississippi Half-Step Uptown Toodeloo ->
102-d1t02 - Franklin's Tower
103-d1t03 - New Minglewood Blues
104-d1t04 - They Love Each Other
105-d1t05 - Me & My Uncle ->
106-d1t06 - Big River
107-d1t07 - Loser
108-d1t08 - El Paso
109-d1t09 - Row Jimmy
110-d2t01 - Lazy Lightnin' ->
111-d2t02 - Supplication
_________________________________________________________________________

Tagging notes:
Show information is embedded within the header of each flac file. 
It will display on any player capable of directly playing flac files. 
If converted to wav during processing, all tags will be 
stripped, however audio data will remain unaffected. 
If you must transcode to a lossy format, do so directly Flac > Lossy.
Use ffp to validate audio integrity.
Md5 values will change if tagging is altered.
B. Proctor 4-05-11
_________________________________________________________________________

SHNTOOL OUTPUT:
    length     expanded size   cdr  WAVE problems filename
     9:27.25      100077644    ---   --   -----   gd78-12-19d1t01.wav
    14:00.28      148241900    ---   --   -----   gd78-12-19d1t02.wav
     6:42.36       70997516    ---   --   -----   gd78-12-19d1t03.wav
     8:13.67       87122828    ---   --   -----   gd78-12-19d1t04.wav
     2:59.00       31575644    ---   --   -----   gd78-12-19d1t05.wav
     6:04.44       64313132    ---   --   -----   gd78-12-19d1t06.wav
     8:57.27       94790348    ---   --   -----   gd78-12-19d1t07.wav
     6:13.16       65834876    ---   --   -----   gd78-12-19d1t08.wav
    13:44.72      145522988    ---   --   -----   gd78-12-19d1t09.wav
     3:39.29       38699852    ---   --   -----   gd78-12-19d2t01.wav
     5:45.35       60940364    ---   --   -----   gd78-12-19d2t02.wav
    85:48.04      908117092 B                     (totals for 11 files)




More information about the bittorrent mailing list