[bittorrent] The Steepwater Band, Double Door, Chicago, IL, 2011-04-15 (skm140)

Automated Mailer noreply-bt.e at etree.org
Sat Apr 16 11:13:18 MDT 2011


Band:           Other
Torrent Name:   The Steepwater Band, Double Door, Chicago, IL, 2011-04-15 (skm140)
Uploaded by:    taperj
DB Link:        
Details:        http://bt.etree.org/details.php?id=544104

Contact the seeder at http://db.etree.org/taperj

If the link to this show does not work, it was probably removed for
being non-trade-friendly.

Description / text file:
-------------------------
The Steepwater Band
2011-04-15
Double Door
Chicago, IL

Source: Neumann skm140(~DIN/FOB/DFC/~7' High) > Sound Devices Mixpre > Olympus LS-10(24/48)
Transfer: Olympus LS-10(24/48) > Audacity 1.3b(amplify to -0.1dB/dither/resample to 16/44.1) > CDWave(tracking) > FLAC(16/44.1/Level 8)

Recorded By: John Fairbairn

One set
========
1. Dance Me A Number For Free
2. Healer
3. Collision
4. Vanishing Girl
5. My Back Pocket
6. Wake Up And Walk Away
7. The Stars Look Good Tonight
8. All The Way To Nowhere
9. Waiting To Be Offended


Notes: Second band of 3, Backyard Tire Fire headlined.

    length     expanded size    cdr  WAVE problems  fmt   ratio  filename
     4:05.13       43248620 B   ---   --   ---xx   flac  0.5795  tsb2011-04-15s1t01.flac
     5:02.62       53418668 B   ---   --   ---xx   flac  0.6035  tsb2011-04-15s1t02.flac
     5:06.35       54060764 B   ---   --   ---xx   flac  0.5870  tsb2011-04-15s1t03.flac
     4:36.08       48705260 B   ---   --   ---xx   flac  0.5881  tsb2011-04-15s1t04.flac
     2:47.00       29458844 B   ---   --   ---xx   flac  0.5797  tsb2011-04-15s1t05.flac
     6:32.05       69160604 B   ---   --   ---xx   flac  0.5632  tsb2011-04-15s1t06.flac
     5:27.24       57739292 B   ---   --   ---xx   flac  0.5741  tsb2011-04-15s1t07.flac
     6:14.19       66018332 B   ---   --   ---xx   flac  0.5859  tsb2011-04-15s1t08.flac
    19:28.70      206199884 B   ---   --   ---xx   flac  0.5497  tsb2011-04-15s1t09.flac
    59:20.11      628010268 B                            0.5715  (9 files)




More information about the bittorrent mailing list