[bittorrent] the chris robinson brotherhood - april 11, 2011 - akg c422 > v2 > ad2k+

Automated Mailer noreply-bt.e at etree.org
Wed Apr 13 07:53:54 MDT 2011


Band:           Chris Robinson
Torrent Name:   the chris robinson brotherhood - april 11, 2011 - akg c422 > v2 > ad2k+
Uploaded by:    macdaddys.info
DB Link:        
Details:        http://bt.etree.org/details.php?id=544028

Contact the seeder at http://db.etree.org/macdaddys.info

If the link to this show does not work, it was probably removed for
being non-trade-friendly.

Description / text file:
-------------------------
The Chris Robinson Brotherhood
The Echoplex (1154 Glendale Boulevard, Los Angeles, CA 90026)
Monday, April 11, 2011



AKG c422 > s42 > Grace Design Lunatec V2 > Sonic AD2K+ > Tascam HD-P2

Location	: ~5' left of center, ~20' back, ~8' superclamp (knob)/extension pole + offset arm/nanoclamp
Mic Config	: Blumlein
Record Format	: 24-bit, 96 kHz
Transfer	: CF card > USB 2.0 card reader > PC
Edit, Tracking	: normalize to 95%, fades, invert polarity (Samplitude)
Dither		: POW-r #3 (Samplitude)
Resample	: Ultra High 1 (Samplitude)
Final Format	: 16-bit, 44.1 kHz
Verify		: shntool.exe
Tagging		: Live Show Tagger (foobar2000)



01. - set one -
02. Tulsa Yesterday
03. Tough Mama
04. Beware
05. Someday Past the Sunset
06. Star or Stone
07. Tomorrow Blues
08. They Love Each Other
09. Rosalee
10. - set two -
11. Hot Buttered Biscuit
12. Vibration and Light Suite
13. Roll Old Jeremiah
14. Girl, I Love You
15. Sunday Sound
16. Blue Suede Shoes
17. Star-Crossed Lonely Sailor
18. Ride

19. Sugaree 


    length     expanded size    cdr  WAVE problems  fmt   ratio  filename
     0:17.01        3001196 B   ---   --   -----    wav  1.0000  crb2011-04-11c422_01.wav
    11:02.08      116795660 B   ---   --   -----    wav  1.0000  crb2011-04-11c422_02.wav
    10:28.26      110840396 B   ---   --   -----    wav  1.0000  crb2011-04-11c422_03.wav
     8:30.55       90093404 B   ---   --   -----    wav  1.0000  crb2011-04-11c422_04.wav
     5:58.02       63155948 B   ---   --   -----    wav  1.0000  crb2011-04-11c422_05.wav
     9:42.60      102805964 B   ---   --   -----    wav  1.0000  crb2011-04-11c422_06.wav
     7:04.37       74880668 B   ---   --   -----    wav  1.0000  crb2011-04-11c422_07.wav
     7:56.53       84091100 B   ---   --   -----    wav  1.0000  crb2011-04-11c422_08.wav
     8:12.28       86854700 B   ---   --   -----    wav  1.0000  crb2011-04-11c422_09.wav
     0:40.30        7126604 B   ---   --   -----    wav  1.0000  crb2011-04-11c422_10.wav
     8:20.01       88202396 B   ---   --   -----    wav  1.0000  crb2011-04-11c422_11.wav
    12:05.20      127937084 B   ---   --   -----    wav  1.0000  crb2011-04-11c422_12.wav
     7:51.47       83194988 B   ---   --   -----    wav  1.0000  crb2011-04-11c422_13.wav
     4:07.71       43737836 B   ---   --   -----    wav  1.0000  crb2011-04-11c422_14.wav
     7:52.51       83380796 B   ---   --   -----    wav  1.0000  crb2011-04-11c422_15.wav
    11:11.29      118432652 B   ---   --   -----    wav  1.0000  crb2011-04-11c422_16.wav
    12:13.60      129442364 B   ---   --   -----    wav  1.0000  crb2011-04-11c422_17.wav
    16:42.12      176781068 B   ---   --   -----    wav  1.0000  crb2011-04-11c422_18.wav
    12:53.27      136420748 B   ---   --   -----    wav  1.0000  crb2011-04-11c422_19.wav
   163:11.18     1727175572 B                            1.0000  (19 files)

++ recorded, transferred and seeded to bt.etree by macdaddy (April 13, 2011)




More information about the bittorrent mailing list