[bittorrent] gd78-11-24.77177.prefm.gmb.sbeok.t-flac16

Automated Mailer noreply-bt.e at etree.org
Tue Apr 12 07:27:59 MDT 2011


Band:           Grateful Dead
Torrent Name:   gd78-11-24.77177.prefm.gmb.sbeok.t-flac16
Uploaded by:    germain
DB Link:        http://db.etree.org/shn/77177
Details:        http://bt.etree.org/details.php?id=544002

Contact the seeder at http://db.etree.org/germain

If the link to this show does not work, it was probably removed for
being non-trade-friendly.

Description / text file:
-------------------------
This is a tagged version of shnid: 77147

Grateful Dead
11/24/1978
Capitol Theatre 
Passaic, NJ 

Source:  PreFM SBD MR > DAT (48Khz) > DAT > WAV > FLAC.
DAT > WAV transfer:  Playback on Sony PCM-R500 > Neutrik input on 
Presonus Firebox preamp/A:D > firewire/XP Pro PC > Wavelab 5, recorded 
as 24 bit/96 KHz WAV > Waves L3 Multimaximizer (mastered to 16 bit/44.1 
KHz WAV using hi res CD dither settings) > CDWAV 1.9 (tracking and FLAC 
encoding) > FLAC (level 8).
Source DAT provided by B.Koucky.
DAT > WAV Transfer and FLAC encoding by C.Ladner.
_________________________________________________________________________

--Set 1--
101-d1t01 - radio announcer/band intros
102-d1t02 - Jack Straw
103-d1t03 - Sugaree
104-d1t04 - Me & My Uncle- >
105-d1t05 - Big River
106-d1t06 - Stagger Lee
107-d1t07 - Passenger
108-d1t08 - Candyman
109-d1t09 - New Minglewood Blues
110-d1t10 - From The Heart Of Me
111-d1t11 - Loser
112-d1t12 - The Promised Land

--Set 2--
201-d2t01 - tuning/announcer
202-d2t02 - I Need A Miracle ->
203-d2t03 - Good Lovin'
204-d2t04 - long pause between songs...
205-d2t05 - Friend Of The Devil
206-d3t01 - Estimated Prophet ->
207-d3t02 - Shakedown Street ->
208-d3t03 - Drums* -> Ollin Arrageed* ->
209-d3t04 - Fire On The Mountain* ->
210-d3t05 - Sugar Magnolia ->
211-d3t06 - Sunshine Daydream

--Encore--
212-d3t07 - Johnny B. Goode

* with Hamza el-Din 
_________________________________________________________________________
 
Comments:
This is the only source in circulation with a DAE-free lineage at the 
time of seeding. The sound quality is outstanding.  There are some 
fluctuations in levels in the right channel during "Me and My Uncle" 
and "Big River" which sound like a poor connection on one of the 
drums/high hat.

stereo 24/96 DVD-Audio rendering was also generated with Discwelder 
Chrome II.
seeded by the green mtn bros @ candyman FTP and planetflac, 
September 2006.
_________________________________________________________________________

Tagging notes:
Show information is embedded within the header
of each flac file. It will display on any player 
capable of directly playing flac files. 
If converted to wav during processing, all tags 
will be stripped, however audio data will remain 
unaffected. If you must transcode to a lossy format, 
do so directly Flac > Lossy.
Use ffp to validate audio integrity.
Md5 values will change if tagging is altered.
B. Proctor 4-19-08
_________________________________________________________________________

SHNTOOL LEN OUTPUT:
    length     expanded size   cdr  WAVE problems filename
     0:52.38        9262220    ---   --   ---xx   gd1978-11-24d1t01.flac
     6:26.16       68128076    ---   --   ---xx   gd1978-11-24d1t02.flac
    13:09.56      139311356    ---   --   ---xx   gd1978-11-24d1t03.flac
     3:00.54       31879052    ---   --   ---xx   gd1978-11-24d1t04.flac
     6:53.05       72865004    ---   --   ---xx   gd1978-11-24d1t05.flac
     9:06.33       96392060    ---   --   ---xx   gd1978-11-24d1t06.flac
     5:42.11       60354716    ---   --   ---xx   gd1978-11-24d1t07.flac
     8:58.51       95023196    ---   --   ---xx   gd1978-11-24d1t08.flac
     6:10.51       65387996    ---   --   ---xx   gd1978-11-24d1t09.flac
     5:22.29       56869052    ---   --   ---xx   gd1978-11-24d1t10.flac
     9:13.32       97624508    ---   --   ---xx   gd1978-11-24d1t11.flac
     4:24.21       46619036    ---   --   ---xx   gd1978-11-24d1t12.flac
     1:16.74       13580492    ---   --   ---xx   gd1978-11-24d2t01.flac
     4:22.58       46353260    ---   --   ---xx   gd1978-11-24d2t02.flac
     7:01.10       74287964    ---   --   ---xx   gd1978-11-24d2t03.flac
     2:17.09       24188012    ---   --   ---xx   gd1978-11-24d2t04.flac
    10:15.45      108591884    ---   --   ---xx   gd1978-11-24d2t05.flac
    12:51.13      136035020    ---   --   ---xx   gd1978-11-24d3t01.flac
    12:19.11      130385516    ---   --   ---xx   gd1978-11-24d3t02.flac
    16:01.65      169673324    ---   --   ---xx   gd1978-11-24d3t03.flac
     8:25.16       89119676    ---   --   ---xx   gd1978-11-24d3t04.flac
     5:42.36       60413516    ---   --   ---xx   gd1978-11-24d3t05.flac
     3:10.42       33614828    ---   --   ---xx   gd1978-11-24d3t06.flac
     4:36.70       48851084    ---   --   ---xx   gd1978-11-24d3t07.flac
   167:41.21     1774810848 B                     (totals for 24 files, 0.5941 overall compression ratio)



More information about the bittorrent mailing list