[bittorrent] Widespread Panic 04/09/2011 Asheville Civic Center ots neumann ak40's > v3

Automated Mailer noreply-bt.e at etree.org
Sun Apr 10 22:58:35 MDT 2011


Band:           Widespread Panic
Torrent Name:   Widespread Panic 04/09/2011 Asheville Civic Center ots neumann ak40's > v3
Uploaded by:    datdork
DB Link:        
Details:        http://bt.etree.org/details.php?id=543960

Contact the seeder at http://db.etree.org/datdork

If the link to this show does not work, it was probably removed for
being non-trade-friendly.

Description / text file:
-------------------------
Widespread Panic
04/09/2011
Asheville Civic Center
Asheville, NC

source:   Neumann ak40 > lc3 > km100 (din) > Lunatec V3 > Edirol R-44 @ 24/48
location: OTS LOC
transfer: SDHC card > PC > wavelab 6.1 > cd wave > traders little helper (flac level 8)

all editing (fades, Crystal Resampler (high), dither w/ iZotope Ozone 4) done in wavelab 6.1

*16bit/44.1khz fileset*

recorded and transferred by Gordon Wilson

A Team Dirty South Recording

Set One:

01. Intro
02. Ribs n Whiskey
03. Rebirtha >
04. Send Your Mind
05. Tall Boy
06. Can't Get High
07. Shut Up and Drive >
08. You Got Yours >
09. Machine >
10. Barstools > Satisfied > Barstools 

Set Two: 

01. Intro
02. Papa Legba
03. All Time Low >
04. Little Lily >
05. Quarter Tank Of Gasoline *
06. Visiting Day >
07. (I Walk on) Guilded Splinters >
08. Drums >
09. Chilly Water >
10. Arlene >
11. Pilgrims >
12. Chilly Water

Encore:
13. Dirty Side Down
14. I'm Not Alone >
15. Fixin' To Die

* Last Time Played 08/06/2000



shntool output:

    length     expanded size    cdr  WAVE problems  fmt   ratio  filename
     1:11.44       12627932 B   ---   --   ---xx   flac  0.4779  wsp2011-04-09s1t01.flac
     6:58.01       73737596 B   ---   --   ---xx   flac  0.5523  wsp2011-04-09s1t02.flac
     7:57.21       84192236 B   ---   --   ---xx   flac  0.5761  wsp2011-04-09s1t03.flac
     3:22.41       35729276 B   ---   --   ---xx   flac  0.5706  wsp2011-04-09s1t04.flac
     4:59.57       52877708 B   ---   --   ---xx   flac  0.5514  wsp2011-04-09s1t05.flac
     4:12.25       44511644 B   ---   --   ---xx   flac  0.5745  wsp2011-04-09s1t06.flac
     6:53.04       72862652 B   ---   --   ---xx   flac  0.5798  wsp2011-04-09s1t07.flac
     9:21.22       99012188 B   ---   --   ---xx   flac  0.5735  wsp2011-04-09s1t08.flac
     3:17.35       34833164 B   ---   --   ---xx   flac  0.5762  wsp2011-04-09s1t09.flac
    13:07.09      138848012 B   ---   --   ---xx   flac  0.5889  wsp2011-04-09s1t10.flac
     1:24.29       14885852 B   ---   --   ---xx   flac  0.4670  wsp2011-04-09s2t01.flac
     8:00.33       84749660 B   ---   --   ---xx   flac  0.5667  wsp2011-04-09s2t02.flac
    11:31.47      122002988 B   ---   --   ---xx   flac  0.5539  wsp2011-04-09s2t03.flac
     7:42.33       81574460 B   ---   --   ---xx   flac  0.5425  wsp2011-04-09s2t04.flac
     7:31.25       79615244 B   ---   --   ---xx   flac  0.5257  wsp2011-04-09s2t05.flac
     7:38.56       80922956 B   ---   --   ---xx   flac  0.5463  wsp2011-04-09s2t06.flac
     8:48.36       93223916 B   ---   --   ---xx   flac  0.5546  wsp2011-04-09s2t07.flac
     1:29.02       15704348 B   ---   --   ---xx   flac  0.4792  wsp2011-04-09s2t08.flac
     4:27.74       47272892 B   ---   --   ---xx   flac  0.5712  wsp2011-04-09s2t09.flac
    10:28.39      110870972 B   ---   --   ---xx   flac  0.5585  wsp2011-04-09s2t10.flac
     9:59.17      105703628 B   ---   --   ---xx   flac  0.5464  wsp2011-04-09s2t11.flac
     6:46.67       71776028 B   ---   --   ---xx   flac  0.5137  wsp2011-04-09s2t12.flac
     6:17.71       66669836 B   ---   --   ---xx   flac  0.5388  wsp2011-04-09s2t13.flac
     6:19.22       66907388 B   ---   --   ---xx   flac  0.5273  wsp2011-04-09s2t14.flac
     8:15.64       87468572 B   ---   --   ---xx   flac  0.5577  wsp2011-04-09s2t15.flac
   168:02.49     1778581148 B                            0.5549  (25 files)






More information about the bittorrent mailing list