[bittorrent] gd78-11-20.95660.sbd.fix.miller.sbeok.t-flac16

Automated Mailer noreply-bt.e at etree.org
Sat Apr 9 06:31:04 MDT 2011


Band:           Grateful Dead
Torrent Name:   gd78-11-20.95660.sbd.fix.miller.sbeok.t-flac16
Uploaded by:    germain
DB Link:        http://db.etree.org/shn/95660
Details:        http://bt.etree.org/details.php?id=543907

Contact the seeder at http://db.etree.org/germain

If the link to this show does not work, it was probably removed for
being non-trade-friendly.

Description / text file:
-------------------------
This is a tagged version of shnid: 95660

Grateful Dead 
November 20, 1978
Cleveland Music Hall 
Cleveland, OH

Recording Info:
Source 1: SBD -> ? -> Cassette -> Sound Devices 744T -> Samplitude
Source 2: SBD -> Master Cassette -> Dat -> CD
Source 3: Nakamichi 300 -> Reels? -> Dat -> CD
Source 4: SBD -> Master Reel -> Cassette -> Dat -> CD

Transfer Info:
Adobe Audition v1.5 -> Samplitude Professional v10.1 -> FLAC
(2 Discs Audio / 2 Discs FLAC)

All Transfers and Mastering By Charlie Miller
charliemiller87 at earthlink.net
November 5, 2008

Notes:
-- This is an upgrade to shnid=95244
-- Source 2 may have extra cassette gen in it
-- There is a tape flip in Looks Like Rain
-- This is far from perfect, but is much better than other circulating copies
-- Thanks to Matt Smith for the new Set 1 tape
-- Thanks to Joe B. Jones for his help with the pitch correction
_______________________________________________________________________________

--Set 1--
101-d1t01 - Mississippi Half-Step Uptown Toodeloo -> (1)
102-d1t02 - Franklin's Tower (1)
103-d1t03 - Mama Tried -> (1)
104-d1t04 - Mexicali Blues (2)
105-d1t05 - It Must Have Been The Roses (2)
106-d1t06 - Looks Like Rain (1)
107-d1t07 - Stagger Lee (1)
108-d1t08 - Passenger (1)
109-d1t09 - Peggy-O (2)
110-d1t10 - Lazy Lightnin' -> (1)
111-d1t11 - Supplication (1)

--Set 2--
201-d2t01 - Jam -> (3,2,4,2,3)
202-d2t02 - Drums -> (3)
203-d2t03 - Jam -> (3,4,2)
204-d2t04 - Jack-A-Roe (2)
205-d2t05 - Playing in the Band -> (2)
206-d2t06 - Shakedown Street -> (2)
207-d2t07 - If I Had the World To Give -> (2)
208-d2t08 - Playing in the Band -> (2,3)
209-d2t09 - Around & Around (3)
_______________________________________________________________________________

Tagging notes:
Show information is embedded within the header of each flac file. 
It will display on any player capable of directly playing flac 
files. If converted to wav during processing, all tags will be 
stripped, however audio data will remain unaffected. If you must 
transcode to a lossy format, do so directly Flac > Lossy.
Use ffp to validate audio integrity.
Md5 values will change if tagging is altered.
B. Proctor 3-07-09

SHNTOOL OUTPUT:
    length     expanded size   cdr  WAVE problems filename
    length     expanded size   cdr  WAVE problems filename
     9:07.12       96519068    ---   --   -----   gd78-11-20d1t01.wav
    14:47.38      156556220    ---   --   -----   gd78-11-20d1t02.wav
     2:32.54       26939852    ---   --   -----   gd78-11-20d1t03.wav
     5:18.65       56248124    ---   --   -----   gd78-11-20d1t04.wav
     7:45.50       82143644    ---   --   -----   gd78-11-20d1t05.wav
     7:16.37       76997468    ---   --   -----   gd78-11-20d1t06.wav
     7:55.74       83964092    ---   --   -----   gd78-11-20d1t07.wav
     4:42.13       49775420    ---   --   -----   gd78-11-20d1t08.wav
     9:11.32       97271708    ---   --   -----   gd78-11-20d1t09.wav
     3:40.35       38890364    ---   --   -----   gd78-11-20d1t10.wav
     5:50.17       61780028    ---   --   -----   gd78-11-20d1t11.wav
    10:12.12      107985068    ---   --   -----   gd78-11-20d2t01.wav
     2:40.72       28393388    ---   --   -----   gd78-11-20d2t02.wav
     3:41.11       39010316    ---   --   -----   gd78-11-20d2t03.wav
     4:40.73       49563740    ---   --   -----   gd78-11-20d2t04.wav
     9:40.00      102312044    ---   --   -----   gd78-11-20d2t05.wav
    12:13.71      129468236    ---   --   -----   gd78-11-20d2t06.wav
     7:27.03       78857900    ---   --   -----   gd78-11-20d2t07.wav
     6:31.17       69012428    ---   --   -----   gd78-11-20d2t08.wav
     8:57.61       94870316    ---   --   -----   gd78-11-20d2t09.wav
   144:13.72     1526559424 B                     (totals for 20 files)




More information about the bittorrent mailing list