[bittorrent] Drive-By Truckers 04/06/2011 The Handlebar Greenville, SC schoeps mk41

Automated Mailer noreply-bt.e at etree.org
Thu Apr 7 14:05:14 MDT 2011


Band:           Drive-By Truckers
Torrent Name:   Drive-By Truckers 04/06/2011 The Handlebar Greenville, SC schoeps mk41
Uploaded by:    datdork
DB Link:        
Details:        http://bt.etree.org/details.php?id=543875

Contact the seeder at http://db.etree.org/datdork

If the link to this show does not work, it was probably removed for
being non-trade-friendly.

Description / text file:
-------------------------
Drive-By Truckers
04/06/2011
The Handlebar
Greenville, SC

source:   Schoeps mk41(DINa) > kc5 > cmc6 > Lunatec V3 > Edirol R-44 @ 24/48
location: directly in front of soundboard DFC
transfer: SDHC card > PC > wavelab 6.1 > cd wave > traders little helper (flac level 8)

all editing (fades, Crystal Resampler (high), dither w/ iZotope Ozone 4) done in wavelab 6.1

*16bit/44.1khz fileset*

recorded and transferred by Gordon Wilson

A Team Dirty South Recording


01. Intro
02. Ray's Automatic Weapon
03. 3 Dimes Down
04. The Fourth Night of My Drinking
05. Where The Devil Don't Stay
06. Go-Go Boots
07. Gravity's Gone
08. Dancin' Ricky
09. Feb 14
10. Women Without Whiskey
11. Why Henry Drinks
12. A Ghost To Most
13. Everybody Needs Love
14. Cartoon Gold
15. Tails Facing Up
16. Pulaski
17. Mercy Buckets
18. Marry me *
19. Lookout Mountain

Encore
20. Used To Be a Cop
21. Pin Hits The Shell
22. Steve McQueen
23. Zip City
24. Let There Be Rock
25. People Who Died **

* w/ Clay Levertt
** w/ Craig

suggested disc split after track 13
big thanks to Stu for the Schoeps!


shntool 3.0.4
Copyright (C) 2000-2007 Jason Jordan <shnutils at freeshell.org>

    length     expanded size    cdr  WAVE problems  fmt   ratio  filename
     2:02.39       21612572 B   ---   --   ---xx   flac  0.4577  dbt2011-04-06t01.flac
     5:02.73       53444540 B   ---   --   ---xx   flac  0.5097  dbt2011-04-06t02.flac
     3:02.74       32278892 B   ---   --   ---xx   flac  0.5817  dbt2011-04-06t03.flac
     4:34.52       48455948 B   ---   --   ---xx   flac  0.5601  dbt2011-04-06t04.flac
     5:13.60       55354364 B   ---   --   ---xx   flac  0.5659  dbt2011-04-06t05.flac
     6:07.28       64804700 B   ---   --   ---xx   flac  0.5045  dbt2011-04-06t06.flac
     3:42.74       39334892 B   ---   --   ---xx   flac  0.5598  dbt2011-04-06t07.flac
     3:15.47       34508588 B   ---   --   ---xx   flac  0.5242  dbt2011-04-06t08.flac
     4:33.14       48190172 B   ---   --   ---xx   flac  0.5556  dbt2011-04-06t09.flac
     4:40.42       49490828 B   ---   --   ---xx   flac  0.5379  dbt2011-04-06t10.flac
     4:20.36       45948716 B   ---   --   ---xx   flac  0.5115  dbt2011-04-06t11.flac
     4:28.72       47444588 B   ---   --   ---xx   flac  0.5587  dbt2011-04-06t12.flac
     6:40.04       70569452 B   ---   --   ---xx   flac  0.5290  dbt2011-04-06t13.flac
     3:03.12       32309468 B   ---   --   ---xx   flac  0.5417  dbt2011-04-06t14.flac
     5:31.48       58501340 B   ---   --   ---xx   flac  0.5138  dbt2011-04-06t15.flac
     4:21.29       46108652 B   ---   --   ---xx   flac  0.5019  dbt2011-04-06t16.flac
     5:15.60       55707164 B   ---   --   ---xx   flac  0.5391  dbt2011-04-06t17.flac
     5:44.35       60763964 B   ---   --   ---xx   flac  0.5969  dbt2011-04-06t18.flac
    13:56.57      147604508 B   ---   --   ---xx   flac  0.4759  dbt2011-04-06t19.flac
     6:30.32       68871308 B   ---   --   ---xx   flac  0.5322  dbt2011-04-06t20.flac
     4:15.08       45000860 B   ---   --   ---xx   flac  0.4766  dbt2011-04-06t21.flac
     6:05.71       64553036 B   ---   --   ---xx   flac  0.5452  dbt2011-04-06t22.flac
     5:13.48       55326140 B   ---   --   ---xx   flac  0.5588  dbt2011-04-06t23.flac
     6:45.09       71463212 B   ---   --   ---xx   flac  0.5670  dbt2011-04-06t24.flac
     7:27.44       78954332 B   ---   --   ---xx   flac  0.5891  dbt2011-04-06t25.flac
   131:57.18     1396602236 B                            0.5344  (25 files)




More information about the bittorrent mailing list