[bittorrent] Devon And Megan Red Hook Bait And Tackle Brooklyn, New York 4/3/2011 (Schoeps CCM4V'S FOB)

Automated Mailer noreply-bt.e at etree.org
Mon Apr 4 07:24:33 MDT 2011


Band:           Other
Torrent Name:   Devon And Megan Red Hook Bait And Tackle Brooklyn, New York 4/3/2011 (Schoeps CCM4V'S FOB)
Uploaded by:    zmanatl
DB Link:        
Details:        http://bt.etree.org/details.php?id=543787

Contact the seeder at http://db.etree.org/zmanatl

If the link to this show does not work, it was probably removed for
being non-trade-friendly.

Description / text file:
-------------------------
Devon & Megan Palmer
Red Hook Bait And Tackle Shop
Brooklyn, New York
4/3/2011

Source: Schoeps CCM4V'S(din)>Lunatec V2>Benchmark AD2K>
Sound Devices 722 (24/48)
FOB/DLFC/KFC/ZFC/AARP 4' From Stage, 7' High
DSP: Sound Devices 722>Sound Forge 9.0>CD Wave>flac(16)
Recorded By: Z-Man
Seeded By: Z-Man

Disc I 

01 Introduction/Tuning
02 *Jesus On The Mainline
03 *Knoxville Girl
04 *You're Gonna Be Loved
05 Banter/Megan Tunes Up
06 #Dead Flowers
07 #You Win Again
08 #You Gotta Walk
09 #Long Black Limosine
10 #Tennessee - False Start
11 #Tennessee
12 #If You See Me On The Road
13 #Stole It Away From You
14 #I Forgot To Remember To Forget Her
15 #There's Ramblin' Man
16 #Wayfaring Stranger
17 @Miss Ohio
18 @?

* Devon Solo
# With Megan On Fiddle And Vocals
@ Megan Solo On Guitar

Flac Fingerprint 

dev&megan2011-04-03d01t01.flac:714febb9417c1b50ce71c09dce85e82c
dev&megan2011-04-03d01t02.flac:6ac0f0447e8ae29d81192ff43a0ce92f
dev&megan2011-04-03d01t03.flac:6ef2ba6712101e12d1652c6d5f951354
dev&megan2011-04-03d01t04.flac:9fe8506978bcd66bc474558208d2d254
dev&megan2011-04-03d01t05.flac:e9aa4222792e964214845f628ef1155b
dev&megan2011-04-03d01t06.flac:a371fa37ea6cd3aa27e80bbfa622969f
dev&megan2011-04-03d01t07.flac:5fe57b9f3c94555aeda97c4aecd901e9
dev&megan2011-04-03d01t08.flac:32e4b5318176804085344f7a210491da
dev&megan2011-04-03d01t09.flac:a74f6917c1667c446bff445c65f568df
dev&megan2011-04-03d01t10.flac:00c006220218b542d5a1953ff80d478b
dev&megan2011-04-03d01t11.flac:b248479ec1999308a6797457da4ee5be
dev&megan2011-04-03d01t12.flac:c2904760e37baf497d8215e1de7f1acc
dev&megan2011-04-03d01t13.flac:b5c790595f2466b072071659b092e5c0
dev&megan2011-04-03d01t14.flac:99c0f78d2aed864049a61f494bca0ac9
dev&megan2011-04-03d01t15.flac:f04e305c49d5b4c2c39fd57958b688a8
dev&megan2011-04-03d01t16.flac:21d2e92ee691613a9c4783b6fafcfd42
dev&megan2011-04-03d01t17.flac:5bc097c4795bb14a4ff8e96be6d744ca
dev&megan2011-04-03d01t18.flac:bab50ce1c4b14ed28e806663fc64c867

Shntool 

    length     expanded size    cdr  WAVE problems  fmt   ratio  filename
     0:38.37        6790268 B   ---   --   ---xx   flac  0.3415  dev&megan2011-04-03d01t01.flac
     3:08.08       33182060 B   ---   --   ---xx   flac  0.4631  dev&megan2011-04-03d01t02.flac
     3:33.26       37634396 B   ---   --   ---xx   flac  0.3961  dev&megan2011-04-03d01t03.flac
     1:54.73       20281340 B   ---   --   ---xx   flac  0.4266  dev&megan2011-04-03d01t04.flac
     0:57.65       10207724 B   ---   --   ---xx   flac  0.3377  dev&megan2011-04-03d01t05.flac
     4:21.18       46082780 B   ---   --   ---xx   flac  0.4390  dev&megan2011-04-03d01t06.flac
     4:40.27       49455548 B   ---   --   ---xx   flac  0.4269  dev&megan2011-04-03d01t07.flac
     1:58.04       20824652 B   ---   --   ---xx   flac  0.4518  dev&megan2011-04-03d01t08.flac
     4:43.14       49954172 B   ---   --   ---xx   flac  0.4182  dev&megan2011-04-03d01t09.flac
     0:50.11        8845916 B   ---   --   ---xx   flac  0.3893  dev&megan2011-04-03d01t10.flac
     3:46.70       40031084 B   ---   --   ---xx   flac  0.4413  dev&megan2011-04-03d01t11.flac
     4:18.73       45682940 B   ---   --   ---xx   flac  0.3841  dev&megan2011-04-03d01t12.flac
     3:47.15       40078124 B   ---   --   ---xx   flac  0.4643  dev&megan2011-04-03d01t13.flac
     2:33.69       27151532 B   ---   --   ---xx   flac  0.4670  dev&megan2011-04-03d01t14.flac
     4:51.02       51337148 B   ---   --   ---xx   flac  0.4327  dev&megan2011-04-03d01t15.flac
     4:47.54       50753852 B   ---   --   ---xx   flac  0.4371  dev&megan2011-04-03d01t16.flac
     3:57.71       41973836 B   ---   --   ---xx   flac  0.4029  dev&megan2011-04-03d01t17.flac
     4:22.06       46230956 B   ---   --   ---xx   flac  0.4074  dev&megan2011-04-03d01t18.flac
    59:11.43      626498328 B                            0.4252  (18 files)











More information about the bittorrent mailing list