[bittorrent] [Project 1990] 1990-04-04 - University of Colorado - Boulder, CO ***Set 1***

Automated Mailer noreply-bt.e at etree.org
Mon Apr 4 06:37:15 MDT 2011


Band:           Phish
Torrent Name:   [Project 1990] 1990-04-04 - University of Colorado - Boulder, CO   ***Set 1***
Uploaded by:    twatts
DB Link:        http://db.etree.org/shn/30844
Details:        http://bt.etree.org/details.php?id=543786

Contact the seeder at http://db.etree.org/twatts

If the link to this show does not work, it was probably removed for
being non-trade-friendly.

Description / text file:
-------------------------
Phish 
4/4/90 Set I 
University of Colorado 
Boulder, CO 

Source: SBD> CassX (recorded 12/96)
Transfer: Dennon DRW-840> Sony r500> Audiophile 2496> Samplitude 5.5 at 44.1> WAV> FLAC on 6/11/05 by EEE
Remastering: FLAC > Wavelab (pitch correction/editing) > FLAC16 by Marmar

01. Golgi Aparatus
02. You Enjoy Myself
03. Walk Away
04. Take the A-Train
05. Possum
06. Foam
07. Gamehendge Narration
08. The//Divided Sky
09. Carolina 

-After A Train Trey remarks this is the first show in CO in two years. They are obviously pysched with their return as the crowd is yelling "Wilson Sucks" and it sounds like the place is generally going nuts. What venue at CU is this I wonder? Anyone?

ORIGINAL SHNTOOL OUTPUT:
    length     expanded size   cdr  WAVE problems filename
     5:03.50       53566844    ---   --   -----   phish1990-04-04s1d1t01.wav
    14:31.50      153762044    ---   --   -----   phish1990-04-04s1d1t02.wav
     3:57.66       41962076    ---   --   -----   phish1990-04-04s1d1t03.wav
     6:30.18       68838380    ---   --   -----   phish1990-04-04s1d1t04.wav
     8:16.18       87536780    ---   --   -----   phish1990-04-04s1d1t05.wav
     8:16.33       87572060    ---   --   -----   phish1990-04-04s1d1t06.wav
    16:19.13      172726220    ---   --   -----   phish1990-04-04s1d1t07.wav
     1:27.32       15422108    ---   --   -----   phish1990-04-04s1d1t08.wav
    64:22.55      681386512 B                     (totals for 8 files, 1.0000 ov
erall compression ratio)




More information about the bittorrent mailing list