[bittorrent] Moonalice Brooklyn Bowl Brooklyn, New York 4/2/2011 (Schoeps CCM4V'S FOB)

Automated Mailer noreply-bt.e at etree.org
Sun Apr 3 07:44:14 MDT 2011


Band:           Other
Torrent Name:   Moonalice Brooklyn Bowl Brooklyn, New York 4/2/2011 (Schoeps CCM4V'S FOB)
Uploaded by:    zmanatl
DB Link:        
Details:        http://bt.etree.org/details.php?id=543739

Contact the seeder at http://db.etree.org/zmanatl

If the link to this show does not work, it was probably removed for
being non-trade-friendly.

Description / text file:
-------------------------
Moonalice 
Brooklyn Bowl
Brooklyn, New York
4/2/2011

Source: Schoeps CCM4V'S(din)>Lunatec V2>Benchmark AD2K>
Sound Devices 722 (24/48)
FOB/DLFC/KFC/ZFC/AARP 18' From Stage, 7' High
DSP: Sound Devices 722>Sound Forge 9.0>CD Wave>flac(16)
Recorded By: Z-Man
Seeded By: Z-Man

Disc I 

01 Roger Banter
02 Steve Parrish Tells Story
03 Fair To Even
04 Real Deal
05 Lost At Sea 
06 On The Road Again 
07 Joker's Lie >
08 Gwendolyn
09 Already Cried 

Disc II 

01 Kicky >
02 This Wheel >
03 15 Cadillacs
04 Like To Love
05 Tell Me It's OK

Flac Fingerprint 

moonalice2011-04-02d01t01.flac:373d1fd158814ef2cc7c29ec0ad7ba44
moonalice2011-04-02d01t02.flac:1dd145d051c20e7055f42f3f10c8afbb
moonalice2011-04-02d01t03.flac:73ca89b0b770c5312587f5f7282b4d5b
moonalice2011-04-02d01t04.flac:c2c466ec43dee9a0c6b72b9b9a12578c
moonalice2011-04-02d01t05.flac:013070531ac514c73cdc9b8e2f66491e
moonalice2011-04-02d01t06.flac:6649dc0965cad55fad6ababff9db67cc
moonalice2011-04-02d01t07.flac:05fa79666f164cb1622305ca301d6226
moonalice2011-04-02d01t08.flac:c7404de03b28c58b21f7fd89db01eb76
moonalice2011-04-02d01t09.flac:afdb38575d2d6800cd02a089ddd71697
moonalice2011-04-02d02t01.flac:e1861dda1e1a24b364dc0d7884eaeaf8
moonalice2011-04-02d02t02.flac:be664064c1772b155dc9349bb169b40f
moonalice2011-04-02d02t03.flac:636036c0d2c950455cb2c51d7fad9cd6
moonalice2011-04-02d02t04.flac:90474baad25bf2b9d3702ffd22bf79e1
moonalice2011-04-02d02t05.flac:7fd93ca07c711e1885ec585723ba7203

Shntool 

    length     expanded size    cdr  WAVE problems  fmt   ratio  filename
     0:24.50        4351244 B   ---   --   ---xx   flac  0.3398  moonalice2011-04-02d01t01.flac
     2:12.15       23320124 B   ---   --   ---xx   flac  0.3668  moonalice2011-04-02d01t02.flac
     7:47.32       82454108 B   ---   --   ---xx   flac  0.5200  moonalice2011-04-02d01t03.flac
     4:57.25       52449644 B   ---   --   ---xx   flac  0.4938  moonalice2011-04-02d01t04.flac
     4:42.09       49766012 B   ---   --   ---xx   flac  0.5417  moonalice2011-04-02d01t05.flac
     8:00.14       84704972 B   ---   --   ---xx   flac  0.5286  moonalice2011-04-02d01t06.flac
     7:34.19       80130332 B   ---   --   ---xx   flac  0.5348  moonalice2011-04-02d01t07.flac
     8:38.12       91403468 B   ---   --   ---xx   flac  0.4798  moonalice2011-04-02d01t08.flac
     4:15.32       45057308 B   ---   --   ---xx   flac  0.5008  moonalice2011-04-02d01t09.flac
    10:17.55      108968204 B   ---   --   ---xx   flac  0.4938  moonalice2011-04-02d02t01.flac
     5:35.03       59101100 B   ---   --   ---xx   flac  0.4886  moonalice2011-04-02d02t02.flac
     4:19.60       45828764 B   ---   --   ---xx   flac  0.5600  moonalice2011-04-02d02t03.flac
     7:34.05       80097404 B   ---   --   ---xx   flac  0.5081  moonalice2011-04-02d02t04.flac
    19:00.11      201121916 B   ---   --   ---xx   flac  0.5007  moonalice2011-04-02d02t05.flac
    95:18.42     1008754600 B                            0.5051  (14 files)






More information about the bittorrent mailing list