[bittorrent] Widespread Panic - 1992-07-28 -Bottleneck, Lawrence, KS (partial) - SBD

Automated Mailer noreply-bt.e at etree.org
Fri Jul 30 10:27:15 MDT 2010


Band:           Widespread Panic
Torrent Name:   Widespread Panic - 1992-07-28 -Bottleneck, Lawrence, KS (partial) - SBD
Uploaded by:    branch_ld
DB Link:        http://db.etree.org/shninfo_detail.php?shnid=82583
Details:        http://bt.etree.org/details.php?id=537322

Contact the seeder at http://db.etree.org/branch_ld

If the link to this show does not work, it was probably removed for
being non-trade-friendly.

Description / text file:
-------------------------
Widespread Panic
Bottleneck
Lawrence, KS.
7/28/1992


*****SBD REMASTER*****


Source: SBD/DAT *Partial*
Remastered By: Michael Wilker mwilker-at-comcast.net
Remastered @ The Renaissance Center Dickson, TN.
Protools24/CDWave> TLH> Flac(level 8)
****************************************************
THANKS TO WIDESPREAD PANIC FOR THIER SUPPORT
OF AUDIENCE RECORDING,SHARING, AND TRADING.
PLEASE DO NOT ENCODE THIS SHOW TO LOSSY
AUDIO FORMATS. PLEASE SPREAD, BUT PLEASE
INCLUDE SOURCE INFO. DO NOT SELL OR
DISTRIBUTE FOR A PROFIT BY ANY MEANS.!!!!!!!
****************************************************

ONE SET/DISC ONE:
01. Pigeons
02. Conrad
03. Stop-N-Go
04. Travelin' Light
05. Fishwater
06. Pleas
07. C. Brown

SHNTOOL:
length expanded size cdr WAVE problems filename
9:38.37 102046268 --- -- ----- wsp1992-07-28d1t01.wav
8:57.29 94795052 --- -- ----- wsp1992-07-28d1t02.wav
7:49.41 82828076 --- -- ----- wsp1992-07-28d1t03.wav
6:33.34 69405212 --- -- ----- wsp1992-07-28d1t04.wav
9:36.07 101622908 --- -- ----- wsp1992-07-28d1t05.wav
4:27.44 47202332 --- -- ----- wsp1992-07-28d1t06.wav
6:34.30 69572204 --- -- ----- wsp1992-07-28d1t07.wav
53:36.72 567472052 B (totals for 7 files, 1.0000 overall compression ratio)



More information about the bittorrent mailing list