[bittorrent] *FIXED* God Street Wine 1998-12-26 Stephen's Talkhouse, Amagannset, NY

Automated Mailer noreply-bt.e at etree.org
Fri Jul 30 04:36:21 MDT 2010


Band:           Other
Torrent Name:   *FIXED* God Street Wine 1998-12-26 Stephen's Talkhouse, Amagannset, NY   
Uploaded by:    nhteamfocker
DB Link:        
Details:        http://bt.etree.org/details.php?id=537312

Contact the seeder at http://db.etree.org/nhteamfocker

If the link to this show does not work, it was probably removed for
being non-trade-friendly.

Description / text file:
-------------------------
God Street Wine
12/26/98
Stephen's Talkhouse
Amagannset, NY



Source:

MG-210 (hyper) > MV-100 > DA-P1 (44.1)

Conversion:

Tascam DA-20 MKII > Tascam HD-P2 > Sony Soundforge 8.0 > CD Wave > Flac


Taped and Converted by Patrick Price (patrickprice at comcast.net)
Aashish Mody's rig


Setlist:

1. Diana
2. Epiphany
3. Get on the Train
4. Slinky
5. Goodnight Gretchen
6. Still Like You > 
7. Water
8. Stupid Hat
9. When She Go
10. Mile by Mile
11. Funny Kind of Love > 
12. Morning Cigarrettes
13. Upside Down & Inside Out
14. Hellfire
15. Princess Henrietta
16. Encore Break / Crowd
17. RU4 Real?
18. MOlly
19. Brickhouse


Flac Fingerprint:

gsw1998-12-26s1t01.flac:8f2c0bedff97f4ad9873d8c15ddbc31d
gsw1998-12-26s1t02.flac:5198b2ae0d9a30514ed8014ad894ee6e
gsw1998-12-26s1t03.flac:8fb97151043dba01c32e2ce3fa7b6020
gsw1998-12-26s1t04.flac:9b5bf8ac0bfedc6e383895f040f24272
gsw1998-12-26s1t05.flac:845a0d5f73d6d69d867d17f5d3785d1e
gsw1998-12-26s1t06.flac:83d37ebf6002bdc5130d8508eb7c8df3
gsw1998-12-26s1t07.flac:65b0dee73ac848ec2fac705e48eb4ec7
gsw1998-12-26s1t08.flac:37172576204cbbd5f50cc39db7811363
gsw1998-12-26s1t09.flac:402cc46de12e878719705151430a7cab
gsw1998-12-26s1t10.flac:5905aa4cb4c9fad7cf8ff1a91158a59a
gsw1998-12-26s1t11.flac:0829200171b9a83177e0300e0ef1c04a
gsw1998-12-26s1t12.flac:56351c850088f242c6d19953608cb8ad
gsw1998-12-26s1t13.flac:53ecb25a5df6f78ed251f408533b79a8
gsw1998-12-26s1t14.flac:9b69e9b42240eb1b50962d26662aadd4
gsw1998-12-26s1t15.flac:4316b690fcce3662d899a4e272cd1518
gsw1998-12-26s1t16.flac:84c9afa1a1c5a6b06beff04ac7924b52
gsw1998-12-26s1t17.flac:2805992bfe0029b2e537fc1224bac951
gsw1998-12-26s1t18.flac:4e054b7c3f3a3e3ef10f710f88d26d39
gsw1998-12-26s1t19.flac:224eed1b87a397fe2468494bdf5efb9a

Shntool Output:

length expanded size cdr WAVE problems fmt ratio filename
9:42.15 102700124 B --- -- ---xx flac 0.5085 gsw1998-12-26s1t01.flac
7:05.62 75115868 B --- -- ---xx flac 0.5784 gsw1998-12-26s1t02.flac
6:23.39 67652972 B --- -- ---xx flac 0.5683 gsw1998-12-26s1t03.flac
6:41.28 70802300 B --- -- ---xx flac 0.6118 gsw1998-12-26s1t04.flac
12:26.61 131737916 B --- -- ---xx flac 0.5941 gsw1998-12-26s1t05.flac
5:02.64 53423372 B --- -- ---xx flac 0.5751 gsw1998-12-26s1t06.flac
7:24.19 78366332 B --- -- ---xx flac 0.5770 gsw1998-12-26s1t07.flac
9:03.24 95841692 B --- -- ---xx flac 0.5434 gsw1998-12-26s1t08.flac
7:18.48 77376140 B --- -- ---xx flac 0.5471 gsw1998-12-26s1t09.flac
9:14.28 97791500 B --- -- ---xx flac 0.5650 gsw1998-12-26s1t10.flac
6:54.54 73156652 B --- -- ---xx flac 0.5854 gsw1998-12-26s1t11.flac
8:57.18 94769180 B --- -- ---xx flac 0.5954 gsw1998-12-26s1t12.flac
5:12.63 55185020 B --- -- ---xx flac 0.5331 gsw1998-12-26s1t13.flac
16:58.27 179638748 B --- -- ---xx flac 0.5483 gsw1998-12-26s1t14.flac
11:25.37 120921068 B --- -- ---xx flac 0.5572 gsw1998-12-26s1t15.flac
2:39.56 28179356 B --- -- ---xx flac 0.4576 gsw1998-12-26s1t16.flac
11:35.69 122760332 B --- -- ---xx flac 0.5428 gsw1998-12-26s1t17.flac
9:20.10 98807564 B --- -- ---xx flac 0.5602 gsw1998-12-26s1t18.flac
13:21.02 141301148 B --- -- ---xx flac 0.5844 gsw1998-12-26s1t19.flac
166:48.49 1765527284 B 0.5626 (19 files)




More information about the bittorrent mailing list