[bittorrent] gd74-10-17.99031.sbd.smith.gemss.flac16

Automated Mailer noreply-bt.e at etree.org
Thu Jul 29 05:17:39 MDT 2010


Band:           Grateful Dead
Torrent Name:   gd74-10-17.99031.sbd.smith.gemss.flac16
Uploaded by:    germain
DB Link:        http://db.etree.org/shn/99031
Details:        http://bt.etree.org/details.php?id=537269

Contact the seeder at http://db.etree.org/germain

If the link to this show does not work, it was probably removed for
being non-trade-friendly.

Description / text file:
-------------------------
The Grateful Dead
October 17 1974
Winterland 
San Francisco Califorinia

Black Maxell UDII reel tape @ 3 3/4 ips.>Akai GX 636>Apogee Mini Me(24/96)>Apogee mini DAC(monitoring/mastering)>Lynx One soundcard>Wavelab 5.0>DVD by Matt Smith

DVD-Audio 2496>DVD-A Explorer>Wavelab 6.1>GEMS Edit Station
Weiss Saracon for SRC POWr3 Dither 16bit/44.1 kHz by Jamie Waddell

TradersLilHelper for FLAC8  SBE Free  Tag&Rename for MetaData   

Edit notes: These reels have been mastered for better tonal balance.  Phil's bass was the center point of this multi track mix down.  It was a tad too much to begin.  A different feel than the standard vault reel master reel. The highs originally were VERY buried and or decayed and i returned them to a better position in the mix, albeit still a tad distant.  This edit was in the works for a couple of months.  Lots of our ears LListened as we came to the best balance for the edit. I'm sure you will enjoy.- j.w.

Matt said...  "I think people will love the 10-17-74. I would put the lineage as 16track>2track for Jerry>?>R(WB at 3 3/4 ips.)>DVD/CD.  These 10/74 reel copies made by Will back in 1979 were most likely 'work tapes' used by Jerry for production work for the "GD Movie".  all the following shows are complete including all the 'seastones' sets so more cool things on the way.  Yes, i know there have been multiple versions of these shows but IMHO, these are unique versions that were Jerry's own copies that were dubbed from by Will.  Basically these versions were never copied by anyone in will's circle since everyone already had them via rob bertrando and no one at the time bothered to investigate them.  Remember, this was 1979 and the GD were still a great behemoth of a touring machine so everyone was more concerned with taping new shows.  There is no cassette gen with these as they were straight reel copies that i know for sure so these 24 bit versions esp. are really nice.  Whethe
 r Jerry had a master of a 2 track mixdown or a copy will never be known for sure but these really do sound fantastic regardless.  Much more of a "being there" feeling IMHO..  ENJOY!! ....Stuff from the debbie stash is hard to explain at times and nailing down exact lineages is even harder.  either way they all sound fantastic!!!  It was the kind of deal where Will suddenly found out about all these reels/cassettes that Jerry "left" there so he copied as much as he could w/o any concern of the exact source.  There were TONS of stuff everywhere strewn all over the house.."

a **GEMS** Production  www.shnflac.net   May 2009

-Complete Seastones
-listen for a fan scream for mexicali before they play a note of it
-Last two minutes of rider patched with alternate aud
-Huge Thanks to Matt Smith for the Transfer work and Deadication.
-big Thanks To Todd Evans for Project GEMS...

    " Helpin' to dust off those reels just one more time!! "

   ~~Set 1~~
01.BG Introduction   
02.Promised Land    
03.Mississippi Half Step Uptown Toodleoo
04.Black Throated Wind 
05.Friend of the Devil 
06.Jack Straw 
07.Loser 
08.El Paso 
09.China Cat Sunflower > 
10.I Know You Rider 
11.Me and My Uncle 
12.It Must Have Been the Roses 
01.Weather Report Prelude > 
02.Part 1 > 
03.Let it Grow
04.Phil Lesh and Ned Lagin - Seastones 
   ~~Set 2~~
05.Scarlet Begonias  
06.Big River  
07.Ramble On Rose
08.Mexicali Blues 
01.He's Gone > 
02.The Other One >
03.Spanish Jam >
04.Mind Left Body Jam  > 
05.The Other One > 
06.Stella Blue 
Sugar Magnolia(missing)
~~Encore
Casey Jones (missing)
US Blues (missing)

We actually have the last three tracks, the same aud used for the rider patch, which was a work of art to get it even that close, LOL.  We may release the aud if we can get it to sound listenable.  Hopefully those tracks will surface elsewhere.

; shntool md5 fingerprint file generated by Trader's Little Helper
; generated on May 16, 2009, at 12:32:22

04420917cf8dd59937f0e2d92de11d9f  [shntool]  gd1974.10.17.GEMS.d1t01.flac
d97edad488d5a1369d047cbbd3289135  [shntool]  gd1974.10.17.GEMS.d1t02.flac
7955a64e10ba1eeb630811ef25f01ac6  [shntool]  gd1974.10.17.GEMS.d1t03.flac
0d569137fb0017b848625923d7a32d37  [shntool]  gd1974.10.17.GEMS.d1t04.flac
a0f6594c42972ed164c375d288452af9  [shntool]  gd1974.10.17.GEMS.d1t05.flac
4d298a35e14e5ec528b027e62e05ee21  [shntool]  gd1974.10.17.GEMS.d1t06.flac
69cecaf4525b1fa8478539a8bc6ead92  [shntool]  gd1974.10.17.GEMS.d1t07.flac
a2c14e13167682450cdb0219ee20bc89  [shntool]  gd1974.10.17.GEMS.d1t08.flac
f0efb4dc37468afd87eff0b56642c7d7  [shntool]  gd1974.10.17.GEMS.d1t09.flac
e012df55b4db494700a77cdce30d2f75  [shntool]  gd1974.10.17.GEMS.d1t10.flac
c54b9d879f16c74dbc2f71fd06e85c0d  [shntool]  gd1974.10.17.GEMS.d1t11.flac
2c4a2ae563cddba938fba4241f2b2165  [shntool]  gd1974.10.17.GEMS.d1t12.flac
645fc873fb0591e578564a466fd23add  [shntool]  gd1974.10.17.GEMS.d2t01.flac
105741e896a799af46327daff5c98508  [shntool]  gd1974.10.17.GEMS.d2t02.flac
2e8f916010e0403f3961cdc0ae83be66  [shntool]  gd1974.10.17.GEMS.d2t03.flac
9c095b1b796b1bea6a68e940faf14183  [shntool]  gd1974.10.17.GEMS.d2t04.flac
e4af63990a676470a08481da0e7391cc  [shntool]  gd1974.10.17.GEMS.d2t05.flac
b3b4645f87943e0228090dd2f112d01b  [shntool]  gd1974.10.17.GEMS.d2t06.flac
664cbed347f81f3c3d476f90959baa50  [shntool]  gd1974.10.17.GEMS.d2t07.flac
1ce6e7b0d0bdaff95d249ba8ba43d6a1  [shntool]  gd1974.10.17.GEMS.d2t08.flac
909004e6a80545c588428d24ed64a31f  [shntool]  gd1974.10.17.GEMS.d3t01.flac
717324c561a82b1141a35cae24de1343  [shntool]  gd1974.10.17.GEMS.d3t02.flac
552cf43b3edd10d434de67ffe0779ec3  [shntool]  gd1974.10.17.GEMS.d3t03.flac
640f045edd625be8dcf26812fdee288e  [shntool]  gd1974.10.17.GEMS.d3t04.flac
4e93bbb9c8afb4d09d6c6e648bb201b6  [shntool]  gd1974.10.17.GEMS.d3t05.flac
8baa0e8e4a2fddf0454052e2b8ae220e  [shntool]  gd1974.10.17.GEMS.d3t06.flac

shntool 3.0.4
Copyright (C) 2000-2007 Jason Jordan <shnutils at freeshell.org>

    length     expanded size    cdr  WAVE problems  fmt   ratio  filename
     0:54.28        9591500 B   ---   --   ---xx   flac  0.5063  gd1974.10.17.GEMS.d1t01.flac
     3:24.18       36027980 B   ---   --   ---xx   flac  0.5571  gd1974.10.17.GEMS.d1t02.flac
     7:59.32       84570908 B   ---   --   ---xx   flac  0.5251  gd1974.10.17.GEMS.d1t03.flac
     6:53.06       72867356 B   ---   --   ---xx   flac  0.5204  gd1974.10.17.GEMS.d1t04.flac
     4:07.13       43601420 B   ---   --   ---xx   flac  0.5156  gd1974.10.17.GEMS.d1t05.flac
     5:17.11       55944716 B   ---   --   ---xx   flac  0.5209  gd1974.10.17.GEMS.d1t06.flac
     5:56.36       62883116 B   ---   --   ---xx   flac  0.5052  gd1974.10.17.GEMS.d1t07.flac
     4:28.18       47317580 B   ---   --   ---xx   flac  0.5433  gd1974.10.17.GEMS.d1t08.flac
     9:19.37       98694668 B   ---   --   ---xx   flac  0.5243  gd1974.10.17.GEMS.d1t09.flac
     4:58.63       52715420 B   ---   --   ---xx   flac  0.5259  gd1974.10.17.GEMS.d1t10.flac
     3:05.23       32688140 B   ---   --   ---xx   flac  0.5176  gd1974.10.17.GEMS.d1t11.flac
     5:48.62       61533068 B   ---   --   ---xx   flac  0.5185  gd1974.10.17.GEMS.d1t12.flac
     1:16.28       13472300 B   ---   --   ---xx   flac  0.4642  gd1974.10.17.GEMS.d2t01.flac
     4:30.40       47722124 B   ---   --   ---xx   flac  0.5269  gd1974.10.17.GEMS.d2t02.flac
    10:55.64      115692572 B   ---   --   ---xx   flac  0.5370  gd1974.10.17.GEMS.d2t03.flac
     9:19.20       98654684 B   ---   --   ---xx   flac  0.4480  gd1974.10.17.GEMS.d2t04.flac
    10:31.12      111336668 B   ---   --   ---xx   flac  0.5305  gd1974.10.17.GEMS.d2t05.flac
     4:18.28       45577100 B   ---   --   ---xx   flac  0.5313  gd1974.10.17.GEMS.d2t06.flac
     5:13.67       55370828 B   ---   --   ---xx   flac  0.5167  gd1974.10.17.GEMS.d2t07.flac
     3:31.40       37314524 B   ---   --   ---xx   flac  0.5364  gd1974.10.17.GEMS.d2t08.flac
    12:53.73      136528940 B   ---   --   ---xx   flac  0.5295  gd1974.10.17.GEMS.d3t01.flac
    22:53.25      242256044 B   ---   --   ---xx   flac  0.5454  gd1974.10.17.GEMS.d3t02.flac
     1:44.51       18465596 B   ---   --   ---xx   flac  0.5092  gd1974.10.17.GEMS.d3t03.flac
     3:07.53       33111500 B   ---   --   ---xx   flac  0.5235  gd1974.10.17.GEMS.d3t04.flac
     2:26.53       25879100 B   ---   --   ---xx   flac  0.5435  gd1974.10.17.GEMS.d3t05.flac
     8:12.43       86889980 B   ---   --   ---xx   flac  0.4682  gd1974.10.17.GEMS.d3t06.flac
   163:08.44     1726707832 B                            0.5213  (26 files)



More information about the bittorrent mailing list