[bittorrent] Widespread Panic Tennessee Theatre Knoxville, Tennessee 7/28/2010 (Schoeps CCM4V'S FOB)

Automated Mailer noreply-bt.e at etree.org
Thu Jul 29 00:56:01 MDT 2010


Band:           Widespread Panic
Torrent Name:   Widespread Panic Tennessee Theatre Knoxville, Tennessee 7/28/2010 (Schoeps CCM4V'S FOB)
Uploaded by:    zmanatl
DB Link:        
Details:        http://bt.etree.org/details.php?id=537266

Contact the seeder at http://db.etree.org/zmanatl

If the link to this show does not work, it was probably removed for
being non-trade-friendly.

Description / text file:
-------------------------
Widespread Panic
Tennessee Theatre
Knoxville, Tennessee
7/28/2010

Source: Schoeps CCM4V'S(din)>Lunatec V2>Benchmark AD2K>
Sound Devices 722 (24/48)
FOB/DFC/KFC/ZFC/AARP Row J, Between Seats 109 And 110, 7' High 
DSP: Sound Devices 722>Sound Forge 9.0>CD Wave>flac(16)
Recorded By: Z-Man
Seeded By: Z-Man

Disc I 1st Set

01 Greeting
02 Old Neighborhood >
03 Greta >
04 Sharon >
05 Wonderin'  >
06 Ribs And Whiskey
07 Clinic Cynic >
08 Holden Oversoul >
09 Mini Drum Solo >
10 Thin Air >
11 Bust It Big >
12 Immitation Leather Shoes

Disc II 2nd Set

01 Tuning
02 That Thang >
03 Stop Breakin' Down Blues
04 Space Wrangler
05 *Light Is Like Water >
06 Diner >
07 Low Spark Of High-Heeled Boys >
08 Jam >

Disc III 2nd Set Con't

01 Drum Solo >
02 Bass And Drum Solo >
03 Jam >
04 Protein Drink >
05 Sewing Machine >
06 Low Spark Of High-Heeled Boys >
07 Blackout Blues >
08 Rock >
09 North
Encore:
10 Crowd/Tuning
11 May Your Glass Be Filled >
12 Fairies Wear Boots

* First Time Played Without Jerry Joseph

Flac Fingerprint 

wsp2010-07-28d01t01.flac:8255f515a198f3d7fd5e77eed3603a0d
wsp2010-07-28d01t02.flac:a08fe8ae0980eef4362bae0c8e9cb132
wsp2010-07-28d01t03.flac:7548df9b8fd0caf230eab479e918fad3
wsp2010-07-28d01t04.flac:a3270b59f79390cf25b97bca27526c9b
wsp2010-07-28d01t05.flac:e9a78fbb96eec81fefefb85d9d054784
wsp2010-07-28d01t06.flac:b5cb995142548832250e530dd2916f16
wsp2010-07-28d01t07.flac:93915b55e3c3899aa873625314986d0c
wsp2010-07-28d01t08.flac:ab0ab90d4bebdf4670530daf5b76a2bd
wsp2010-07-28d01t09.flac:6e76315cd091e0ae31c0dd56bafd49a0
wsp2010-07-28d01t10.flac:4f38950a2b5624ca92722a76502f469e
wsp2010-07-28d01t11.flac:594f47cf69b2c8e44b5ee18ce39fc845
wsp2010-07-28d01t12.flac:ef6b67fc2ff3daec669f19ce54b56cc1
wsp2010-07-28d02t01.flac:d600793adcabcf8b0fd224433d17b297
wsp2010-07-28d02t02.flac:16c3f01f38a9b28495413eaf6d367ed2
wsp2010-07-28d02t03.flac:0e086ddc1cf5976fecb0ab51f938d5c1
wsp2010-07-28d02t04.flac:2fec7fd0e92af14ad0f35478c263d480
wsp2010-07-28d02t05.flac:c2f48c45ecfc7cd663af0d91417e8290
wsp2010-07-28d02t06.flac:7c1c58c68bf2c5ac8fbbf2bbfdb6ab5a
wsp2010-07-28d02t07.flac:c18a60dba39d38e4309c82d4fa40b3e8
wsp2010-07-28d02t08.flac:24637678391a97c2146455d9f8987a24
wsp2010-07-28d03t01.flac:62a16b4aefca1b62e54fdcac758edf1b
wsp2010-07-28d03t02.flac:d99f370c2c449d8cdef90e14f890b6a8
wsp2010-07-28d03t03.flac:82c2f2d68fbb1150226902231230a1bf
wsp2010-07-28d03t04.flac:5bf9311eae73c4b29f2b1efb3e9d145d
wsp2010-07-28d03t05.flac:d2a0cd522ae0ea6577f093239fe65f32
wsp2010-07-28d03t06.flac:7bc814f8d11f4fe8b297876643f45c0c
wsp2010-07-28d03t07.flac:36e6e6638821e28cb47241cf748b1529
wsp2010-07-28d03t08.flac:340f4242d9a1cf41b2012a59786c487c
wsp2010-07-28d03t09.flac:8a298924ddad39155186406f5005c2f2
wsp2010-07-28d03t10.flac:8f96ea6c02d9e1ab0addd4cb1196ce2f
wsp2010-07-28d03t11.flac:09f5d2f17572f8331163ce2388e2be4a
wsp2010-07-28d03t12.flac:145b3eb01be8c8b3d1a6b2b3d1b5ea7d

Shntool 

    length     expanded size    cdr  WAVE problems  fmt   ratio  filename
     1:04.68       11449580 B   ---   --   ---xx   flac  0.4132  wsp2010-07-28d01t01.flac
     5:29.38       58125020 B   ---   --   ---xx   flac  0.5461  wsp2010-07-28d01t02.flac
     6:07.62       64884668 B   ---   --   ---xx   flac  0.5412  wsp2010-07-28d01t03.flac
     9:15.49       98017292 B   ---   --   ---xx   flac  0.5110  wsp2010-07-28d01t04.flac
     6:41.50       70854044 B   ---   --   ---xx   flac  0.5392  wsp2010-07-28d01t05.flac
     7:07.53       75447500 B   ---   --   ---xx   flac  0.4902  wsp2010-07-28d01t06.flac
     4:56.11       52240316 B   ---   --   ---xx   flac  0.5062  wsp2010-07-28d01t07.flac
     8:09.67       86417228 B   ---   --   ---xx   flac  0.5231  wsp2010-07-28d01t08.flac
     3:06.62       32956268 B   ---   --   ---xx   flac  0.4881  wsp2010-07-28d01t09.flac
     7:08.23       75553340 B   ---   --   ---xx   flac  0.5282  wsp2010-07-28d01t10.flac
     6:31.53       69097100 B   ---   --   ---xx   flac  0.5418  wsp2010-07-28d01t11.flac
     4:37.67       49020428 B   ---   --   ---xx   flac  0.5496  wsp2010-07-28d01t12.flac
     0:46.68        8274380 B   ---   --   ---xx   flac  0.3842  wsp2010-07-28d02t01.flac
     5:19.62       56417468 B   ---   --   ---xx   flac  0.5003  wsp2010-07-28d02t02.flac
     6:55.00       73206044 B   ---   --   ---xx   flac  0.5210  wsp2010-07-28d02t03.flac
     8:52.13       93875420 B   ---   --   ---xx   flac  0.5075  wsp2010-07-28d02t04.flac
     8:12.55       86918204 B   ---   --   ---xx   flac  0.5157  wsp2010-07-28d02t05.flac
    16:56.25      179281244 B   ---   --   ---xx   flac  0.5082  wsp2010-07-28d02t06.flac
     4:53.47       51795788 B   ---   --   ---xx   flac  0.4779  wsp2010-07-28d02t07.flac
     4:32.37       48067868 B   ---   --   ---xx   flac  0.4745  wsp2010-07-28d02t08.flac
     1:27.52       15469148 B   ---   --   ---xx   flac  0.4219  wsp2010-07-28d03t01.flac
     5:44.05       60693404 B   ---   --   ---xx   flac  0.5620  wsp2010-07-28d03t02.flac
     2:43.55       28882604 B   ---   --   ---xx   flac  0.5169  wsp2010-07-28d03t03.flac
     3:38.24       38511692 B   ---   --   ---xx   flac  0.5245  wsp2010-07-28d03t04.flac
     6:45.51       71561996 B   ---   --   ---xx   flac  0.5591  wsp2010-07-28d03t05.flac
     4:54.01       51863996 B   ---   --   ---xx   flac  0.4761  wsp2010-07-28d03t06.flac
     8:02.48       85137740 B   ---   --   ---xx   flac  0.5098  wsp2010-07-28d03t07.flac
     6:06.59       64701212 B   ---   --   ---xx   flac  0.5238  wsp2010-07-28d03t08.flac
     6:58.38       73824620 B   ---   --   ---xx   flac  0.5534  wsp2010-07-28d03t09.flac
     0:45.03        7945100 B   ---   --   ---xx   flac  0.3846  wsp2010-07-28d03t10.flac
     4:45.41       50370476 B   ---   --   ---xx   flac  0.4369  wsp2010-07-28d03t11.flac
     9:40.72      102481388 B   ---   --   ---xx   flac  0.5393  wsp2010-07-28d03t12.flac
   188:20.09     1993342576 B                            0.5160  (32 files)






More information about the bittorrent mailing list