[bittorrent] Strangefolk 1999-10-01 Franklin Pierce College, Rindge, NH

Automated Mailer noreply-bt.e at etree.org
Wed Jul 28 18:09:26 MDT 2010


Band:           Strangefolk
Torrent Name:   Strangefolk 1999-10-01 Franklin Pierce College, Rindge, NH
Uploaded by:    nhteamfocker
DB Link:        
Details:        http://bt.etree.org/details.php?id=537256

Contact the seeder at http://db.etree.org/nhteamfocker

If the link to this show does not work, it was probably removed for
being non-trade-friendly.

Description / text file:
-------------------------
Strangefolk
10/1/99
Fieldhouse at Franklin Pierce College
Rindge, NH



Source:

DSBD (48.0)

Conversion:

Tascam DA-20 MKII > Tascam HD-P2 > Sony Soundforge 8.0 (44.1) > CD Wave > Flac

Taper:

Unknown

Conversion:

Patrick Price (patrickprice at comcast.net)


Set I

1.  What Say You
2.  New Glock II
3.  Sometimes
4.  Dance->Midnight Rider->Dance
5.  Near & Far
6.  Westerly
7.  Mama
8.  A Blues Tune

Set II

1.  Rachel
2.  Alaska->Video Game->Alaska
3.  Bait
4.  Invisible
5.  So Well->Funky Town->So Well
6.  Speculator 
7.  Like You Anyway 


Flac Fingerprint:

sf1999-10-01s1t01.flac:cfdd4f4d4520ec2e0139c0b90d0c776d
sf1999-10-01s1t02.flac:8cf7c08b99d0cdd2680c0b35e2136f62
sf1999-10-01s1t03.flac:dd57a11ca9bce5764597bbf3e97fcdb8
sf1999-10-01s1t04.flac:4cc4063ac0e1ca336ec092a13225b3c4
sf1999-10-01s1t05.flac:3788d270f73dc6a5d75391b25e891f31
sf1999-10-01s1t06.flac:0957265bd53a7a3447168e1926b25f87
sf1999-10-01s1t07.flac:fdcd7687d01ec05f4ba31bf6c0f7f642
sf1999-10-01s1t08.flac:4e2337b7780698ca45eb515eedadd3dd
sf1999-10-01s2t01.flac:2af66eb29d6a5aca2a546b2315034748
sf1999-10-01s2t02.flac:742966e3079993f28fb21ad1958784a7
sf1999-10-01s2t03.flac:c03d1dcf978933f30176fe6494325d92
sf1999-10-01s2t04.flac:9a146048c33475579c10c139bcb71949
sf1999-10-01s2t05.flac:5e8224ee9d86b9740e770b45a163ba25
sf1999-10-01s2t06.flac:2a1e84410ac37ed18b5eea62479d4786
sf1999-10-01s2t07.flac:2f634a56ca45eb9e8ba9e11600dcdcbc


Shntool Output:

     length     expanded size    cdr  WAVE problems  fmt   ratio  filename
     7:47.22       82430588 B   ---   --   ---xx   flac  0.5286  sf1999-10-01s1t01.flac
     5:00.69       53082332 B   ---   --   ---xx   flac  0.5723  sf1999-10-01s1t02.flac
     7:39.08       80986460 B   ---   --   ---xx   flac  0.5826  sf1999-10-01s1t03.flac
    19:14.62      203711468 B   ---   --   ---xx   flac  0.6004  sf1999-10-01s1t04.flac
     6:07.53       64863500 B   ---   --   ---xx   flac  0.6097  sf1999-10-01s1t05.flac
     8:10.23       86490140 B   ---   --   ---xx   flac  0.6026  sf1999-10-01s1t06.flac
     9:41.04      102497852 B   ---   --   ---xx   flac  0.6149  sf1999-10-01s1t07.flac
     5:16.02       55747148 B   ---   --   ---xx   flac  0.6517  sf1999-10-01s1t08.flac
     6:59.60       74052764 B   ---   --   ---xx   flac  0.5618  sf1999-10-01s2t01.flac
    19:06.32      202229708 B   ---   --   ---xx   flac  0.6214  sf1999-10-01s2t02.flac
     6:39.44       70487132 B   ---   --   ---xx   flac  0.6214  sf1999-10-01s2t03.flac
     4:39.69       49377932 B   ---   --   ---xx   flac  0.6191  sf1999-10-01s2t04.flac
    17:20.65      183608924 B   ---   --   ---xx   flac  0.6158  sf1999-10-01s2t05.flac
     7:47.23       82432940 B   ---   --   ---xx   flac  0.5460  sf1999-10-01s2t06.flac
     9:32.12      100929068 B   ---   --   ---xx   flac  0.6263  sf1999-10-01s2t07.flac
   141:03.23     1492927956 B                            0.6011  (15 files)



More information about the bittorrent mailing list