[bittorrent] Strangefolk 1999-09-28 Calvin Theater, Northampton, MA

Automated Mailer noreply-bt.e at etree.org
Wed Jul 28 17:52:59 MDT 2010


Band:           Other
Torrent Name:   Strangefolk 1999-09-28  Calvin Theater, Northampton, MA
Uploaded by:    nhteamfocker
DB Link:        
Details:        http://bt.etree.org/details.php?id=537255

Contact the seeder at http://db.etree.org/nhteamfocker

If the link to this show does not work, it was probably removed for
being non-trade-friendly.

Description / text file:
-------------------------
Strangefolk
9/28/99
Calvin Theater
Northampton, MA


Source:

MG 210 > D-Mic 20 > DA-P1 (44.1)

Conversion:

Tascam DA-20 MKII > Tascam HD-P2 > Sony Soundforge 8.0 > CD Wave > Flac

Taped and converted by Patrick Price (patrickprice at comcast.net)



Set I 

1.  A Blues Tune
2.  New Glock II
3.  Walnut
4.  Rachel
5.  Furnace
6.  Bait
7.  Sometimes
8.  Heartblood

Set II

1.  Stout-Hearted
2.  Rather Go Fishin'
3.  Otis
4.  Sweet Libation
5.  Reuben's Place
6.  See Too
7.  Alaska
8.  Encore Break / Crowd

Encore: 

9.  Oldies Song*
10. Midnight Rider*


* - with Percy Hill



Flac Fingerprint:

sf1999-09-28s1t01.flac:502ce72514f082d587038e3cd41809b3
sf1999-09-28s1t02.flac:6172c9b7c289be80f817ccc5ed2e9770
sf1999-09-28s1t03.flac:ed920c16187d9cb7a9b1d31b9a1cfaaf
sf1999-09-28s1t04.flac:3d027be0829926b207fb7ccf9104cfe7
sf1999-09-28s1t05.flac:435c1358bab1012fb8fb8971308d3432
sf1999-09-28s1t06.flac:8b45209ce791a555c029f57315e1ee84
sf1999-09-28s1t07.flac:07b772a57de5359dbe4f2fc4f728d3f9
sf1999-09-28s1t08.flac:dd6d04c0400faf3f5b1f0d14810bfdd8
sf1999-09-28s2t01.flac:4ba08fdda38b0023d063df14bc6d8a60
sf1999-09-28s2t02.flac:917ba491e2b42e9ab8b94f07221e3528
sf1999-09-28s2t03.flac:dfe865e5ac4c01ef12fe128b3dff040d
sf1999-09-28s2t04.flac:d67348c6ef9dd65b3310d5caa3b1dc45
sf1999-09-28s2t05.flac:6e30e3412629fe7028a6c27d3a545cad
sf1999-09-28s2t06.flac:08b2779459914b78dd13c9c4f66ab22e
sf1999-09-28s2t07.flac:d4a91bbb05f57e55318f3c15bff3cd81
sf1999-09-28s2t08.flac:539c0e65458b3e13590f0863f9f42e9c
sf1999-09-28s2t09.flac:487e6c5ad6a34f0518aab3692494e574
sf1999-09-28s2t10.flac:144a5c7187e21b40fc905421bb2d35d2


Sector Boundaries:

    length     expanded size    cdr  WAVE problems  fmt   ratio  filename
     5:35.40       59188124 B   ---   --   ---xx   flac  0.5857  sf1999-09-28s1t01.flac
     5:07.01       54157196 B   ---   --   ---xx   flac  0.6261  sf1999-09-28s1t02.flac
     9:51.40      104346524 B   ---   --   ---xx   flac  0.6803  sf1999-09-28s1t03.flac
     7:04.28       74859500 B   ---   --   ---xx   flac  0.6067  sf1999-09-28s1t04.flac
     9:23.04       99322652 B   ---   --   ---xx   flac  0.6545  sf1999-09-28s1t05.flac
     6:55.26       73267196 B   ---   --   ---xx   flac  0.6355  sf1999-09-28s1t06.flac
     7:57.51       84262796 B   ---   --   ---xx   flac  0.6391  sf1999-09-28s1t07.flac
     8:40.17       91767820 B   ---   --   ---xx   flac  0.6753  sf1999-09-28s1t08.flac
     5:58.29       63219452 B   ---   --   ---xx   flac  0.6630  sf1999-09-28s2t01.flac
     9:21.68       99120380 B   ---   --   ---xx   flac  0.6232  sf1999-09-28s2t02.flac
     4:11.69       44438732 B   ---   --   ---xx   flac  0.6054  sf1999-09-28s2t03.flac
     5:28.59       57998012 B   ---   --   ---xx   flac  0.6397  sf1999-09-28s2t04.flac
    15:44.49      166636892 B   ---   --   ---xx   flac  0.6558  sf1999-09-28s2t05.flac
     7:46.72       82371788 B   ---   --   ---xx   flac  0.6394  sf1999-09-28s2t06.flac
    17:39.21      186857036 B   ---   --   ---xx   flac  0.6206  sf1999-09-28s2t07.flac
     3:12.14       33901772 B   ---   --   ---xx   flac  0.5253  sf1999-09-28s2t08.flac
     6:06.33       64640060 B   ---   --   ---xx   flac  0.5773  sf1999-09-28s2t09.flac
     7:19.22       77491388 B   ---   --   ---xx   flac  0.6725  sf1999-09-28s2t10.flac
   143:24.43     1517847320 B                            0.6359  (18 files)






More information about the bittorrent mailing list