[bittorrent] Cowboy Junkies - 2010-07-24 Variety Playouse, Atlanta, Ga. - AKG c426b - RETRACKED

Automated Mailer noreply-bt.e at etree.org
Wed Jul 28 15:21:00 MDT 2010


Band:           Cowboy Junkies
Torrent Name:   Cowboy Junkies - 2010-07-24 Variety Playouse, Atlanta, Ga. -  AKG c426b - RETRACKED
Uploaded by:    barren
DB Link:        
Details:        http://bt.etree.org/details.php?id=537249

Contact the seeder at http://db.etree.org/barren

If the link to this show does not work, it was probably removed for
being non-trade-friendly.

Description / text file:
-------------------------
Cowboy Junkies
2010-07-24
Variety Playhouse, Atlanta, Ga.

Source: AKG c426b (blumlein, dfc, fob, 7')>V3 (24/96)>sd722
Transfer: firewire>CEP2 (dsp between songs), wavelab 6.10 [iZotope Ozone 4 Crystal Resampler (dither & downsample)]>CDWav (splits)>FLACFrontend level 8
taped and transferred by John Barren
A Team Dirty South Recording

one set

01. Cicadas
02. Hunted
03. Shining Moon
04. Sit Sadly By Your Side
05. Stranger Here
06. 200 More Miles
07. banter
08. Moonlight Mile
09. My Fall
10. Working on a Building
11. banter
12. Supernatural*
13. Lungs*
14. banter
15. Renmin Park*
16. Don't Let It Bring You Down
17. Dark Hole Again
18. Good Friday
19. band intros
20. Misguided Angel
encore 
21. State Trooper
22. Walking After Midnight

*  just Margo, Michael, and Jeff

Flac Fingerprint
cj2010-07-24t01.flac:3de27f791534bba498a7f6f7c9117b5d
cj2010-07-24t02.flac:6cca76e5121e564b32871f86b4e5421c
cj2010-07-24t03.flac:482eaa8250f80fb30a496f5dc0f87727
cj2010-07-24t04.flac:70745ea29639476620415464979867b8
cj2010-07-24t05.flac:911a8328d4f08dd97609b8174ef98375
cj2010-07-24t06.flac:dc8f0878fda8c9686cf152fad775c751
cj2010-07-24t07.flac:883592860dc82060b2d4bcbd111ae5d2
cj2010-07-24t08.flac:8cb8ff034b424e0a1cb5453ed885579d
cj2010-07-24t09.flac:7770bf64c546edf67f68d237ecc7ed8b
cj2010-07-24t10.flac:fbe2957299bc09de40af5aed6d804d50
cj2010-07-24t11.flac:7ac0511f453cebe5b707a91398a3ea5b
cj2010-07-24t12.flac:4656ada29762b940e2fa13e8d9a69481
cj2010-07-24t13.flac:b972cf7bbfd458b21c996249a71ae795
cj2010-07-24t14.flac:b3b4ed7c4520c268cd201359505f2f87
cj2010-07-24t15.flac:2a2eae756cff67945f8b45c2528697f6
cj2010-07-24t16.flac:4e4657a2e92df5faa56999e8c6831842
cj2010-07-24t17.flac:1bc5edb558db6262a5d26e89ff668f0d
cj2010-07-24t18.flac:25a4973d16e0de5c89c7ec4706f72aa1
cj2010-07-24t19.flac:616721d1a11c7f177b8f128cc7c1288a
cj2010-07-24t20.flac:4f784847148c995f67aa02af6d3f36d3
cj2010-07-24t21.flac:d446080fbf69d18e3f984ca5945d69e0
cj2010-07-24t22.flac:fd6067a01300c86eee7f406a5f0b7826


Shntool
     length     expanded size    cdr  WAVE problems  fmt   ratio  filename
     6:52.41       72773276 B   ---   --   ---xx   flac  0.4592  cj2010-07-24t01.flac
     5:14.47       55500188 B   ---   --   ---xx   flac  0.5662  cj2010-07-24t02.flac
     6:24.72       67906988 B   ---   --   ---xx   flac  0.4563  cj2010-07-24t03.flac
     4:59.44       52847132 B   ---   --   ---xx   flac  0.4353  cj2010-07-24t04.flac
     3:22.59       35771612 B   ---   --   ---xx   flac  0.5048  cj2010-07-24t05.flac
     5:16.53       55867100 B   ---   --   ---xx   flac  0.4425  cj2010-07-24t06.flac
     2:31.00       26636444 B   ---   --   ---xx   flac  0.3550  cj2010-07-24t07.flac
     5:10.46       54792236 B   ---   --   ---xx   flac  0.4852  cj2010-07-24t08.flac
     4:05.53       43342700 B   ---   --   ---xx   flac  0.4850  cj2010-07-24t09.flac
     9:51.15      104287724 B   ---   --   ---xx   flac  0.4516  cj2010-07-24t10.flac
     1:33.50       16522844 B   ---   --   ---xx   flac  0.3430  cj2010-07-24t11.flac
     4:05.49       43333292 B   ---   --   ---xx   flac  0.3893  cj2010-07-24t12.flac
     3:30.45       37149884 B   ---   --   ---xx   flac  0.4513  cj2010-07-24t13.flac
     0:54.72        9694988 B   ---   --   ---xx   flac  0.3186  cj2010-07-24t14.flac
     4:38.68       49199180 B   ---   --   ---xx   flac  0.3652  cj2010-07-24t15.flac
     3:46.25       39925244 B   ---   --   ---xx   flac  0.5170  cj2010-07-24t16.flac
     4:41.29       49636652 B   ---   --   ---xx   flac  0.5107  cj2010-07-24t17.flac
     5:08.60       54472364 B   ---   --   ---xx   flac  0.5243  cj2010-07-24t18.flac
     5:29.15       58070924 B   ---   --   ---xx   flac  0.4027  cj2010-07-24t19.flac
     5:23.41       57073676 B   ---   --   ---xx   flac  0.4613  cj2010-07-24t20.flac
    10:15.64      108636572 B   ---   --   ---xx   flac  0.4552  cj2010-07-24t21.flac
     6:54.27       73093148 B   ---   --   ---xx   flac  0.4970  cj2010-07-24t22.flac
   110:13.00     1166534168 B                            0.4596  (22 files)






More information about the bittorrent mailing list