[bittorrent] Widespread Panic Tennessee Theatre Knoxville, Tennessee 7/27/2010 (Schoeps CCM4V'S FOB)

Automated Mailer noreply-bt.e at etree.org
Wed Jul 28 00:20:57 MDT 2010


Band:           Widespread Panic
Torrent Name:   Widespread Panic Tennessee Theatre Knoxville, Tennessee 7/27/2010 (Schoeps CCM4V'S FOB)
Uploaded by:    zmanatl
DB Link:        
Details:        http://bt.etree.org/details.php?id=537236

Contact the seeder at http://db.etree.org/zmanatl

If the link to this show does not work, it was probably removed for
being non-trade-friendly.

Description / text file:
-------------------------
Widespread Panic
Tennessee Theatre
Knoxville, Tennessee
7/27/2010

Source: Schoeps CCM4V'S(din)>Lunatec V2>Benchmark AD2K>
Sound Devices 722 (24/48)
FOB/DFC/KFC/ZFC/AARP Row L, Between Seats 109 And 110, 7' High 
DSP: Sound Devices 722>Sound Forge 9.0>CD Wave>flac(16)
Recorded By: Z-Man
Seeded By: Z-Man

Disc I 1st Set

01 Greeting
02 Up All Night >
03 Shut Up And Drive >
04 Stop/Go >
05 Min Drum Solo >
06 Bowlegged Woman >
07 Makes Sense To Me 
08 Her Dance Needs No Body >
09 Henry Paraons Died 
10 Thought Sausage >
11 Ride Me High >
12 Dirty Side Down

Disc II 2nd Set

01 Gimme >
02 Provin' Ground >
03 Postcard >
04 Provin' Ground >
05 Walk On >
06 Climb To Safety
07 Jaded Tourist >
08 Life During Wartime >
09 Jam >

Disc III 2nd Set Con't

01 Drum Solo >
02 Fishwater >
03 Mini Drum Solo >
04 Fishwater
05 Good People >
06 Dark Bar >
07 Good People >
08 Tall Boy
Encore:
09 Dave Banter
10 Blight >
11 Barstools And Dreamers >
12 Satisfied >
13 Barstools And Dreamers

Flac Fingerprint 

wsp2010-07-27d01t01.flac:457edef3af369f4f927c8059401b4460
wsp2010-07-27d01t02.flac:103b6fe2cd6733cf296e824696fb8afe
wsp2010-07-27d01t03.flac:6e613869bd2d35c97090329a000b2e86
wsp2010-07-27d01t04.flac:5e1ebe0c70201d5e39386d9fab6a02cd
wsp2010-07-27d01t05.flac:c9f3e3534455f9161182d0c5701a5668
wsp2010-07-27d01t06.flac:2edf7b1e5f424c12ac36e898fa938994
wsp2010-07-27d01t07.flac:f8909da47a27c449f50be0f80770a819
wsp2010-07-27d01t08.flac:f1a73ae91c2652fd1edc5210f503797e
wsp2010-07-27d01t09.flac:b7f78acfafe252cdcd783a87c31133a2
wsp2010-07-27d01t10.flac:39f97e5c08683b11d91aec33d093d994
wsp2010-07-27d01t11.flac:00dd3d1d9340a56437d1caf9f209f22a
wsp2010-07-27d01t12.flac:d01f408d9445e519119c9c5a86efad34
wsp2010-07-27d02t01.flac:4b80bfa81637b7ffde19043da0387ba4
wsp2010-07-27d02t02.flac:0579b05486693e4a3529f2adc18d665a
wsp2010-07-27d02t03.flac:bdf5fee1c9348b845716e548b7d7c499
wsp2010-07-27d02t04.flac:462d1edf35915491e43a8664f36ca66b
wsp2010-07-27d02t05.flac:0b5309b21ddece17498c19b9e87aa89f
wsp2010-07-27d02t06.flac:09e871cb87a5966aee517ded646b7c6e
wsp2010-07-27d02t07.flac:29d62caea9dbb665f1c3f79669445511
wsp2010-07-27d02t08.flac:d7851b466f5a5600e66ccf7c64692b10
wsp2010-07-27d02t09.flac:7d5120e1b6bf24cb1e4681eb8730c893
wsp2010-07-27d03t01.flac:003dd415c0eefae3be856b5389a5b4f3
wsp2010-07-27d03t02.flac:61b9e7800c5e39db9cce1ce0f3dd084e
wsp2010-07-27d03t03.flac:cc2d519ca3d4256686b083c355d228f7
wsp2010-07-27d03t04.flac:e01a044c36f3cb7ebabc953b5f78d321
wsp2010-07-27d03t05.flac:1c6ab91a97d51d5ea3440e6839d7053f
wsp2010-07-27d03t06.flac:54841b105c3a40b167b2e1732f928c46
wsp2010-07-27d03t07.flac:1e14ae5b23f6a3af8f78f658ddb926d4
wsp2010-07-27d03t08.flac:fbe9a1d958e8b249d5e96e2b5c82678d
wsp2010-07-27d03t09.flac:c9eabbe15ccfd2a53d5c0c0cae6007f5
wsp2010-07-27d03t10.flac:00bd116522414c195d9d6ebda6c7079d
wsp2010-07-27d03t11.flac:5cb5bdc655b6305c25a49f6584068a38
wsp2010-07-27d03t12.flac:b1d7c9efb8591facbe50e0393474557b
wsp2010-07-27d03t13.flac:1da20a1c96877a9268a42185715bf7f7

Shntool 

    length     expanded size    cdr  WAVE problems  fmt   ratio  filename
     0:45.34        8018012 B   ---   --   ---xx   flac  0.4375  wsp2010-07-27d01t01.flac
     3:25.13       36192620 B   ---   --   ---xx   flac  0.5327  wsp2010-07-27d01t02.flac
     7:20.36       77700716 B   ---   --   ---xx   flac  0.5333  wsp2010-07-27d01t03.flac
    13:23.24      141705692 B   ---   --   ---xx   flac  0.5216  wsp2010-07-27d01t04.flac
     1:44.49       18460892 B   ---   --   ---xx   flac  0.4689  wsp2010-07-27d01t05.flac
     8:19.36       88108316 B   ---   --   ---xx   flac  0.5824  wsp2010-07-27d01t06.flac
     4:28.05       47287004 B   ---   --   ---xx   flac  0.5930  wsp2010-07-27d01t07.flac
     8:14.23       87195740 B   ---   --   ---xx   flac  0.5067  wsp2010-07-27d01t08.flac
     7:25.55       78627404 B   ---   --   ---xx   flac  0.5600  wsp2010-07-27d01t09.flac
     4:55.20       52085084 B   ---   --   ---xx   flac  0.5891  wsp2010-07-27d01t10.flac
     9:53.18      104647580 B   ---   --   ---xx   flac  0.5634  wsp2010-07-27d01t11.flac
     5:46.38       61123820 B   ---   --   ---xx   flac  0.5635  wsp2010-07-27d01t12.flac
     6:49.66       72302876 B   ---   --   ---xx   flac  0.4590  wsp2010-07-27d02t01.flac
     5:29.47       58146188 B   ---   --   ---xx   flac  0.5243  wsp2010-07-27d02t02.flac
     4:16.24       45214892 B   ---   --   ---xx   flac  0.5492  wsp2010-07-27d02t03.flac
     1:11.70       12689084 B   ---   --   ---xx   flac  0.5583  wsp2010-07-27d02t04.flac
     7:16.41       77006876 B   ---   --   ---xx   flac  0.5392  wsp2010-07-27d02t05.flac
     6:14.16       66011276 B   ---   --   ---xx   flac  0.5471  wsp2010-07-27d02t06.flac
     8:15.24       87374492 B   ---   --   ---xx   flac  0.5157  wsp2010-07-27d02t07.flac
     7:24.63       78469820 B   ---   --   ---xx   flac  0.5616  wsp2010-07-27d02t08.flac
     3:46.60       40007564 B   ---   --   ---xx   flac  0.4709  wsp2010-07-27d02t09.flac
     8:35.49       90961292 B   ---   --   ---xx   flac  0.4911  wsp2010-07-27d03t01.flac
     4:43.25       49980044 B   ---   --   ---xx   flac  0.5913  wsp2010-07-27d03t02.flac
     1:14.27       13117148 B   ---   --   ---xx   flac  0.6050  wsp2010-07-27d03t03.flac
     4:14.62       44951468 B   ---   --   ---xx   flac  0.5998  wsp2010-07-27d03t04.flac
     2:34.44       27269132 B   ---   --   ---xx   flac  0.5477  wsp2010-07-27d03t05.flac
     1:50.26       19465196 B   ---   --   ---xx   flac  0.4371  wsp2010-07-27d03t06.flac
     3:29.51       36987596 B   ---   --   ---xx   flac  0.5527  wsp2010-07-27d03t07.flac
     4:49.63       51127820 B   ---   --   ---xx   flac  0.5560  wsp2010-07-27d03t08.flac
     0:44.70        7926284 B   ---   --   ---xx   flac  0.4038  wsp2010-07-27d03t09.flac
     6:53.44       72956732 B   ---   --   ---xx   flac  0.5282  wsp2010-07-27d03t10.flac
     9:10.35       97102364 B   ---   --   ---xx   flac  0.5399  wsp2010-07-27d03t11.flac
     2:35.12       27370268 B   ---   --   ---xx   flac  0.5731  wsp2010-07-27d03t12.flac
     2:56.68       31206380 B   ---   --   ---xx   flac  0.5252  wsp2010-07-27d03t13.flac
   180:20.63     1908797672 B                            0.5382  (34 files)






More information about the bittorrent mailing list