No subject


Fri Jul 16 09:31:03 MDT 2010


SteveSw - Nov, 2008
------------------------------------------------------------------------

Sources: 
Primary Source:
Ultramatrix (SBD/AUD mix)
Lineage: DAT> ?> CD> SHN ("?" may not be a 
generation, or it may be. I dunno.)
Edit: SHN > WAV > FLAC
Seconday Source:
Sean Weber-Small's Aud PCM Master>Sony PCM 601ES> RME Hammerfall> 
Soundforge 4.5/CD Architect>CDR>Shn  (shnid 9244, downloaded from archive.org)


Bill Tetzeli (btet at adelphia.net)
3/28/2006

Patched by Scott Clugston.

Thanks to Steve Aserkoff for the discs. 
Tracked, normalized, and seeded by Peter Braverman 
(braverman at earthlink.net), June 2002.

Disc 1
1. Shakedown Street >
2. Walkin' Blues
3. Friend of the Devil
4. Queen Jane Approximately
5. Dire Wolf
6. Good// Times Blues (patched)
7. Cassidy
8. Bertha

Disc 2
1. Scarlet Begonias >
2. Fire on the Mountain
3. Man Smart, Woman Smarter >
4. Ship of Fools >
5. Esti//mated Prophet (patched) >
6. drums >

Disc 3
1. space >
2. I Need a Miracle >
3. The Wheel >
4. Gimme Some Lovin' >
5. Morning Dew

enc:
6. Turn on Your Lovelight

Flaws:
d1t06 - dropout at 3:09 was patched up but is still slightly
        noticeable.
d2t05 - Dropout from 3:06 to 3:09 patched with secondary source with five second fades on either end.


==========

    length     expanded size    cdr  WAVE problems  fmt   ratio  filename
    13:19.21      140993036 B   ---   --   ---xx   flac  0.6535  gd88-07-15d1t01.flac
     7:54.28       83679500 B   ---   --   ---xx   flac  0.6181  gd88-07-15d1t02.flac
     9:54.11      104807516 B   ---   --   ---xx   flac  0.6252  gd88-07-15d1t03.flac
     7:55.20       83837084 B   ---   --   ---xx   flac  0.6399  gd88-07-15d1t04.flac
     3:42.63       39309020 B   ---   --   ---xx   flac  0.6406  gd88-07-15d1t05.flac
     6:25.26       67975196 B   ---   --   ---xx   flac  0.6449  gd88-07-15d1t06.flac
     6:08.15       64950524 B   ---   --   ---xx   flac  0.6615  gd88-07-15d1t07.flac
     7:18.11       77289116 B   ---   --   ---xx   flac  0.6822  gd88-07-15d1t08.flac
     8:07.51       86026796 B   ---   --   ---xx   flac  0.6496  gd88-07-15d2t01.flac
    12:35.51      133301996 B   ---   --   ---xx   flac  0.6460  gd88-07-15d2t02.flac
     7:25.06       78512156 B   ---   --   ---xx   flac  0.6554  gd88-07-15d2t03.flac
     7:21.46       77900636 B   ---   --   ---xx   flac  0.5955  gd88-07-15d2t04.flac
    12:35.40      133276124 B   ---   --   ---xx   flac  0.6304  gd88-07-15d2t05.flac
     7:56.03       83973500 B   ---   --   ---xx   flac  0.5859  gd88-07-15d2t06.flac
     7:05.36       75054716 B   ---   --   ---xx   flac  0.5527  gd88-07-15d3t01.flac
     3:50.12       40600268 B   ---   --   ---xx   flac  0.6816  gd88-07-15d3t02.flac
     4:59.68       52903580 B   ---   --   ---xx   flac  0.6595  gd88-07-15d3t03.flac
     5:23.63       57125420 B   ---   --   ---xx   flac  0.6757  gd88-07-15d3t04.flac
    11:54.69      126111932 B   ---   --   ---xx   flac  0.6314  gd88-07-15d3t05.flac
     6:04.57       64343708 B   ---   --   ---xx   flac  0.6525  gd88-07-15d3t06.flac
   157:58.22     1671971824 B                            0.6370  (20 files)




More information about the bittorrent mailing list