[bittorrent] gd88-07-02.sbd.miller.86817.sbeok.flac

Automated Mailer noreply-bt.e at etree.org
Mon Jul 26 11:59:53 MDT 2010


Band:           Grateful Dead
Torrent Name:   gd88-07-02.sbd.miller.86817.sbeok.flac
Uploaded by:    WHARFRAT73
DB Link:        http://db.etree.org/shn/86817
Details:        http://bt.etree.org/details.php?id=537179

Contact the seeder at http://db.etree.org/WHARFRAT73

If the link to this show does not work, it was probably removed for
being non-trade-friendly.

Description / text file:
-------------------------
Grateful Dead - July 2, 1988
Oxford Plains Speedway - Oxford, ME

Recording Info:
SBD -> Dat (48k)

Transfer Info:
Dat (Sony R500) -> Samplitude Professional v9.11 -> FLAC
(3 Discs Audio / 2 Discs FLAC)

All Transfers and Mastering By Charlie Miller
charliemiller87 at earthlink.net
August 8, 2007

Patch Info:
SBD -> Cassette Master -> Dat (44.1k) supplies:
Start of show through Row Jimmy

Notes:
-- Set 2 is seamless
-- "We Want Phil" chant after West L.A. Fadeaway
-- Thanks to Steve Rolfe for the patch source

Set 1:
d1t01 - Tuning
d1t02 - Iko Iko ->
d1t03 - Jack Straw
d1t04 - West L.A. Fadeaway
d1t05 - Stuck Inside Of Mobile With The Memphis Blues Again
d1t06 - Row Jimmy
d1t07 - Blow Away
d1t08 - Victim Or The Crime ->
d1t09 - Foolish Heart

Set 2:
d2t01 - Tuning
d2t02 - Crazy Fingers ->
d2t03 - Playing In The Band ->
d2t04 - Uncle John's Band ->
d2t05 - Terrapin Station ->
d2t06 - Drums ->
d3t01 - Space ->
d3t02 - The Wheel ->
d3t03 - Gimme Some Lovin' ->
d3t04 - All Along The Watchtower ->
d3t05 - Morning Dew ->
d3t06 - Sugar Magnolia

Encore:
d3t07 -	The Mighty Quinn (Quinn The Eskimo)


SHNTOOL OUTPUT:
    length     expanded size   cdr  WAVE problems filename
     1:21.39       14380172    ---   --   -----   gd88-07-02d1t01.wav
     6:05.72       64555388    ---   --   -----   gd88-07-02d1t02.wav
     6:08.22       64966988    ---   --   -----   gd88-07-02d1t03.wav
     8:48.28       93205100    ---   --   -----   gd88-07-02d1t04.wav
     8:19.37       88110668    ---   --   -----   gd88-07-02d1t05.wav
    11:01.01      116602796    ---   --   -----   gd88-07-02d1t06.wav
     7:27.36       78935516    ---   --   -----   gd88-07-02d1t07.wav
     5:35.29       59162252    ---   --   -----   gd88-07-02d1t08.wav
     9:10.55       97149404    ---   --   -----   gd88-07-02d1t09.wav
     1:07.64       11969372    ---   --   -----   gd88-07-02d2t01.wav
     9:34.62      101399468    ---   --   -----   gd88-07-02d2t02.wav
     9:48.00      103723244    ---   --   -----   gd88-07-02d2t03.wav
     8:19.55       88153004    ---   --   -----   gd88-07-02d2t04.wav
    11:49.36      125152316    ---   --   -----   gd88-07-02d2t05.wav
     7:04.68       74953580    ---   --   -----   gd88-07-02d2t06.wav
     9:25.06       99680156    ---   --   -----   gd88-07-02d3t01.wav
     4:13.00       44629244    ---   --   -----   gd88-07-02d3t02.wav
     5:07.15       54190124    ---   --   -----   gd88-07-02d3t03.wav
     5:44.60       60822764    ---   --   -----   gd88-07-02d3t04.wav
    11:14.05      118905404    ---   --   -----   gd88-07-02d3t05.wav
     9:54.59      104920412    ---   --   -----   gd88-07-02d3t06.wav
     5:04.17       53665628    ---   --   -----   gd88-07-02d3t07.wav
   162:26.16     1719233000 B                     (totals for 22 files)




More information about the bittorrent mailing list