[bittorrent] Grace Potter & the Nocturnals 07/24/2010 Bele Chere Festival Asheville, NC fob neumann ak40's

Automated Mailer noreply-bt.e at etree.org
Sun Jul 25 13:37:05 MDT 2010


Band:           Grace Potter and the Nocturnals
Torrent Name:   Grace Potter & the Nocturnals 07/24/2010 Bele Chere Festival Asheville, NC fob neumann ak40's
Uploaded by:    datdork
DB Link:        http://db.etree.org/lookup_show.php?shows_key=493618
Details:        http://bt.etree.org/details.php?id=537149

Contact the seeder at http://db.etree.org/datdork

If the link to this show does not work, it was probably removed for
being non-trade-friendly.

Description / text file:
-------------------------
Grace Potter and the Nocturnals
07/24/2010
Rock-n-Kiss Stage
Bele Chere Festival
Asheville, NC

source:   Neumann ak40 > lc3 > km100 > Lunatec V3 > Edirol R-44 @ 24/48
location: FOB, DFC, din @ 6'
transfer: SDHC card > PC > wavelab 6.1 > cd wave > traders little helper (flac level 8)

all editing (fades, Crystal Resampler (high), dither w/ iZotope Ozone 4) done in wavelab 6.1

*16bit/44.1khz fileset*

recorded and transferred by Gordon Wilson

A Team Dirty South Recording

01. Intro
02. Medicine
03. Joey
04. Oasis
05. Money
06. Ah Mary
07. Goodbye Kiss
08. One Short Night
09. Only Love
10. Apologies
11. Tiny Light
12. Big White Gate
13. That Phone
14. White Rabbit
15. Hot Summer Night
16. Paris (Ooh La La)

encore:
17. Nothing but the Water (I) >
18. Nothing but the Water (II) >
19. Sweet Hands *

* w/ Black Betty verse
suggested disc split after track 12


shntool 3.0.4
Copyright (C) 2000-2007 Jason Jordan <shnutils at freeshell.org>

    length     expanded size    cdr  WAVE problems  fmt   ratio  filename
     0:35.25        6232844 B   ---   --   ---xx   flac  0.4429  grace2010-07-24t01.flac
     5:12.24       55093292 B   ---   --   ---xx   flac  0.5021  grace2010-07-24t02.flac
     7:34.29       80153852 B   ---   --   ---xx   flac  0.5070  grace2010-07-24t03.flac
     7:06.52       75268748 B   ---   --   ---xx   flac  0.5125  grace2010-07-24t04.flac
     2:54.56       30825356 B   ---   --   ---xx   flac  0.4797  grace2010-07-24t05.flac
     4:34.34       48413612 B   ---   --   ---xx   flac  0.5039  grace2010-07-24t06.flac
     4:52.36       51593516 B   ---   --   ---xx   flac  0.4710  grace2010-07-24t07.flac
     5:10.29       54752252 B   ---   --   ---xx   flac  0.4664  grace2010-07-24t08.flac
     3:24.74       36159692 B   ---   --   ---xx   flac  0.5446  grace2010-07-24t09.flac
     5:57.49       63090092 B   ---   --   ---xx   flac  0.4325  grace2010-07-24t10.flac
     6:13.37       65884268 B   ---   --   ---xx   flac  0.5116  grace2010-07-24t11.flac
     6:12.43       65721980 B   ---   --   ---xx   flac  0.4552  grace2010-07-24t12.flac
     3:26.06       36352556 B   ---   --   ---xx   flac  0.4976  grace2010-07-24t13.flac
     2:50.58       30124460 B   ---   --   ---xx   flac  0.5008  grace2010-07-24t14.flac
     5:20.20       56495084 B   ---   --   ---xx   flac  0.5200  grace2010-07-24t15.flac
     6:15.34       66230012 B   ---   --   ---xx   flac  0.5120  grace2010-07-24t16.flac
     4:18.37       45598268 B   ---   --   ---xx   flac  0.4141  grace2010-07-24t17.flac
     6:06.64       64712972 B   ---   --   ---xx   flac  0.5465  grace2010-07-24t18.flac
     7:12.62       76350668 B   ---   --   ---xx   flac  0.5439  grace2010-07-24t19.flac
    95:20.19     1009053524 B                            0.4970  (19 files)




More information about the bittorrent mailing list